请选择 进入手机版 | 继续访问电脑版
广告招商

[流行/摇滚/乡村] 香港宝丽金唱片93版韩压邓丽君精选80首5CD(WAV/百度)

查看: 5611|回复: 192

430

主题

5681

帖子

366

威望

版主

Rank: 10

积极参与奖

交易诚信度
8
注册时间
2007-12-31
QQ
发表于 2017-11-24 01:03 | 显示全部楼层 |阅读模式

马上注册 家电论坛,众多有奖活动等你来参与!

您需要 登录 才可以下载或查看,没有帐号?注册

x
香港宝丽金唱片93版韩压邓丽君精选80首(WAV/百度)


本人所发的每一个帖子都是本人亲自用正版CD原抓的,音质绝对保证


游客,如果您要查看本帖隐藏内容请回复




解压密码:音声音世原抓CD

wx_camera_1502282407249.jpg wx_camera_1502282417361.jpg wx_camera_1500734726743.jpg





邓丽君  音声音世原抓CD / 歌曲精选80首[一]   抓轨日志   其他下载解压就有了

Exact Audio Copy V1.3 from 2. September 2016

EAC 抓取日志文件从10. 八月 2017, 23:47

邓丽君  音声音世原抓CD / 歌曲精选80首[一]

使用驱动器  :PIONEER DVD-ROM DVD-232   Adapter: 1  ID: 1

读取模式      : 可靠Secure
使用精确流     : 是
清空音频缓存    : 是
使用 C2 指示器 : 否

读取偏移校正:               : 6
读取 Lead-In 和 Lead-Out : 否
用静音填充抓取中丢失偏移的采样       : 是
去除首尾静音块               : 否
在CRC 计算中使用了空样本       : 是
已用接口                  : Win NT 及 2000 本地 Win32 接口

所用输出模式: : 内部 WAV 函数
样本格式    : 44.100 Hz; 16 Bit; 立体声


已抓取 CD 的 TOC

     音轨 |    起始    |    长度    |  起始扇区  |  结束扇区  
    --------------------------------------------
      1 |  0:00.33 |  3:15.65 |     33 |  14722
      2 |  3:16.23 |  2:16.37 |  14723 |  24959
      3 |  5:32.60 |  2:39.40 |  24960 |  36924
      4 |  8:12.25 |  3:51.23 |  36925 |  54272
      5 | 12:03.48 |  3:55.27 |  54273 |  71924
      6 | 15:59.00 |  3:32.50 |  71925 |  87874
      7 | 19:31.50 |  2:57.68 |  87875 | 101217
      8 | 22:29.43 |  3:08.17 | 101218 | 115334
      9 | 25:37.60 |  3:33.03 | 115335 | 131312
     10 | 29:10.63 |  3:38.00 | 131313 | 147662
     11 | 32:48.63 |  4:17.32 | 147663 | 166969
     12 | 37:06.20 |  3:58.30 | 166970 | 184849
     13 | 41:04.50 |  3:46.03 | 184850 | 201802
     14 | 44:50.53 |  3:21.72 | 201803 | 216949
     15 | 48:12.50 |  3:40.18 | 216950 | 233467
     16 | 51:52.68 |  3:54.05 | 233468 | 251022


范围状态及错误

已选择范围

     文件名 D:\WAV原抓CD\邓丽君  音声音世原抓CD - 歌曲精选80首\邓丽君  音声音世原抓CD - 歌曲精选80首[一]\邓丽君  音声音世原抓CD - 歌曲精选80首[一].wav

     峰值电平 99.9 %
     抓取速度 1.7 X
     范围质量 100.0 %
     复制 CRC 7B4C1C5C
     复制成功

没有错误发生


AccurateRip 摘要

音轨  1  精确地校准抓取  4)  [FFB51E3E]  (AR v2)
音轨  2  精确地校准抓取  4)  [C8077FB8]  (AR v2)
音轨  3  精确地校准抓取  4)  [062065D7]  (AR v2)
音轨  4  精确地校准抓取  4)  [CE2E3D9B]  (AR v2)
音轨  5  精确地校准抓取  4)  [5E8B5FAF]  (AR v2)
音轨  6  精确地校准抓取  4)  [CDFE3897]  (AR v2)
音轨  7  精确地校准抓取  4)  [A61A92C5]  (AR v2)
音轨  8  精确地校准抓取  3)  [BA520874]  (AR v2)
音轨  9  精确地校准抓取  4)  [400992B4]  (AR v2)
音轨 10  精确地校准抓取  4)  [6A113B2C]  (AR v2)
音轨 11  精确地校准抓取  3)  [05D8C2C8]  (AR v2)
音轨 12  精确地校准抓取  4)  [618AEB15]  (AR v2)
音轨 13  精确地校准抓取  4)  [00B900E1]  (AR v2)
音轨 14  精确地校准抓取  4)  [74E3B9F1]  (AR v2)
音轨 15  精确地校准抓取  4)  [A64D53B8]  (AR v2)
音轨 16  精确地校准抓取  4)  [742BA4F5]  (AR v2)

所有音轨精确校准抓取

状态报告结尾

---- CUETools DB Plugin V2.1.6

[CTDB TOCID: qYrZMA3uEiBaUQpVb_SZpaZTzu8-] found
Submit result: qYrZMA3uEiBaUQpVb_SZpaZTzu8- has been confirmed
Track | CTDB Status
  1   | (11/11) Accurately ripped
  2   | (11/11) Accurately ripped
  3   | (11/11) Accurately ripped
  4   | (11/11) Accurately ripped
  5   | (10/11) Accurately ripped
  6   | (11/11) Accurately ripped
  7   | (11/11) Accurately ripped
  8   | (11/11) Accurately ripped
  9   | (11/11) Accurately ripped
10   | (11/11) Accurately ripped
11   | (11/11) Accurately ripped
12   | (11/11) Accurately ripped
13   | (11/11) Accurately ripped
14   | (11/11) Accurately ripped
15   | (11/11) Accurately ripped
16   | (11/11) Accurately ripped











此资源供爱好音乐的朋友交流,请您于下载二十四小时后删除。
如您喜欢本资源,请购买正版CD,切勿用于商业目的。
微信号17502199718   
发烧音响CD群40361905(不定期上传本人原版CD抓轨WAV)
回复

使用道具 举报

2

主题

165

帖子

0

威望

新手上路

Rank: 1

交易诚信度
0
注册时间
2015-11-1
发表于 2017-11-24 03:18 | 显示全部楼层
谢谢
回复

使用道具 举报

0

主题

102

帖子

0

威望

新手上路

Rank: 1

交易诚信度
0
注册时间
2017-8-30
发表于 2017-11-24 16:01 | 显示全部楼层
楼主好人,无么奉献
回复

使用道具 举报

0

主题

142

帖子

0

威望

新手上路

Rank: 1

交易诚信度
0
注册时间
2014-4-2
发表于 2017-11-24 17:25 | 显示全部楼层
我只有国内引进版的谢谢楼主!
回复

使用道具 举报

1

主题

69

帖子

0

威望

新手上路

Rank: 1

交易诚信度
0
注册时间
2016-11-6
发表于 2017-11-24 17:43 | 显示全部楼层
永远的邓丽君  谢谢分享
回复

使用道具 举报

0

主题

191

帖子

1

威望

初级会员

Rank: 2Rank: 2

交易诚信度
0
注册时间
2014-1-29
发表于 2017-11-24 21:48 | 显示全部楼层
再收一个版主的
回复

使用道具 举报

2

主题

130

帖子

1

威望

初级会员

Rank: 2Rank: 2

交易诚信度
0
注册时间
2015-10-27
发表于 2017-11-25 22:21 | 显示全部楼层
谢谢分享!
回复

使用道具 举报

1

主题

140

帖子

0

威望

新手上路

Rank: 1

交易诚信度
0
注册时间
2016-6-12
发表于 2017-11-25 23:32 | 显示全部楼层
谢楼主无私的分享
回复

使用道具 举报

28

主题

1213

帖子

2

威望

初级会员

Rank: 2Rank: 2

交易诚信度
0
注册时间
2005-8-25
发表于 2017-11-26 04:54 来自家电论坛网手机触屏版 | 显示全部楼层
谢谢楼主的好音乐
回复

使用道具 举报

0

主题

114

帖子

0

威望

新手上路

Rank: 1

交易诚信度
0
注册时间
2017-11-16
发表于 2017-11-26 13:46 | 显示全部楼层
超喜欢
回复

使用道具 举报

0

主题

15

帖子

0

威望

新手上路

Rank: 1

交易诚信度
0
注册时间
2006-3-8
发表于 2017-11-26 16:42 | 显示全部楼层
听听她的声音,谢谢楼主无私分享。
回复

使用道具 举报

0

主题

138

帖子

2

威望

初级会员

Rank: 2Rank: 2

交易诚信度
0
注册时间
2017-10-27
发表于 2017-11-26 21:57 | 显示全部楼层
版主:音声音世,虽然邓丽君的唱片网上很多,但像版主这样具备:有上佳版本唱片、选用优质光驱、标准抓轨参数、小于2的慢速读取,这样有口碑的无损资源较少,为版主顶起。
回复

使用道具 举报

0

主题

15

帖子

0

威望

新手上路

Rank: 1

交易诚信度
0
注册时间
2017-9-25
发表于 2017-11-27 00:29 | 显示全部楼层
谢谢楼主分享啦
回复

使用道具 举报

0

主题

232

帖子

0

威望

新手上路

Rank: 1

交易诚信度
0
注册时间
2015-3-1
发表于 2017-11-28 08:39 | 显示全部楼层
谢谢分享邓丽君精选
回复

使用道具 举报

0

主题

3

帖子

0

威望

新手上路

Rank: 1

交易诚信度
0
注册时间
2017-11-23
发表于 2017-11-28 22:37 | 显示全部楼层
现在可以下载吗?谢谢你。
回复

使用道具 举报

您需要登录后才可以回帖 登录 | 注册

本版积分规则

关闭

今日推荐上一条 /2 下一条

小黑屋|Archiver|手机版|客服热线:010-68636033 QQ群:194098586|广告合作|家电联盟网 ( 京公网安备11010702000821 京ICP证041102号,京ICP备09075138号-3

GMT+8, 2018-10-19 13:06 , Processed in 0.146533 second(s), 41 queries , Gzip On, Memcache On.

Powered by Discuz! X3.2 Licensed

© 2001-2013 Comsenz Inc.