请选择 进入手机版 | 继续访问电脑版
广告招商

[流行/摇滚/乡村] 夏韶声-谙1 + 高胜美-山地情歌(第三集)《两张CD。》

查看: 869|回复: 46

22

主题

38

帖子

49

威望

高级会员

Rank: 4Rank: 4Rank: 4Rank: 4

交易诚信度
0
注册时间
2015-4-15
发表于 2017-11-16 18:26 | 显示全部楼层 |阅读模式

马上注册 家电论坛,众多有奖活动等你来参与!

您需要 登录 才可以下载或查看,没有帐号?注册

x
格式工厂DSC00001.jpg
格式工厂DSC00002.jpg
格式工厂DSC00003.jpg
格式工厂DSC00004.jpg
Exact Audio Copy V1.3 from 2. September 2016

EAC 抓取日志文件从16. 十一月 2017, 3:01

夏韶声 / 谙1

使用驱动器  :TEAC    CD-W540E   Adapter: 1  ID: 0

读取模式      : 可靠Secure
使用精确流     : 是
清空音频缓存    : 是
使用 C2 指示器 : 否

读取偏移校正:               : 686
读取 Lead-In 和 Lead-Out : 否
用静音填充抓取中丢失偏移的采样       : 是
去除首尾静音块               : 否
在CRC 计算中使用了空样本       : 是
已用接口                  : 已安装外部 ASPI 接口

所用输出模式: : 内部 WAV 函数
样本格式    : 44.100 Hz; 16 Bit; 立体声


已抓取 CD 的 TOC

     音轨 |    起始    |    长度    |  起始扇区  |  结束扇区  
    --------------------------------------------
      1 |  0:00.00 |  4:22.05 |      0 |  19654
      2 |  4:22.05 |  3:38.52 |  19655 |  36056
      3 |  8:00.57 |  2:48.43 |  36057 |  48699
      4 | 10:49.25 |  4:11.22 |  48700 |  67546
      5 | 15:00.47 |  4:23.38 |  67547 |  87309
      6 | 19:24.10 |  4:45.27 |  87310 | 108711
      7 | 24:09.37 |  4:41.65 | 108712 | 129851
      8 | 28:51.27 |  4:21.25 | 129852 | 149451
      9 | 33:12.52 |  5:22.20 | 149452 | 173621
     10 | 38:34.72 |  4:14.40 | 173622 | 192711


范围状态及错误

已选择范围

     文件名 C:\Users\Administrator\Desktop\夏韶声 - 谙1.wav

     峰值电平 94.3 %
     抓取速度 1.2 X
     范围质量 100.0 %
     复制 CRC F35935E8
     复制成功

没有错误发生

状态报告结尾

---- CUETools DB Plugin V2.1.6

[CTDB TOCID: RVtOX85139Wgs9WRZ3ktOJfmj7E-] found
Submit result: RVtOX85139Wgs9WRZ3ktOJfmj7E- has been confirmed
Track | CTDB Status
  1   | (151/152) Accurately ripped
  2   | (150/152) Accurately ripped
  3   | (151/152) Accurately ripped
  4   | (152/152) Accurately ripped
  5   | (151/152) Accurately ripped
  6   | (151/152) Accurately ripped
  7   | (151/152) Accurately ripped
  8   | (151/152) Accurately ripped
  9   | (151/152) Accurately ripped
10   | (147/152) Accurately ripped


==== 记录校验日志 8D8F801CA263C949FBE39CB77B474E44D7E6225EF16A9E8A118AAF452539EF54 ====

试听连接:
游客,如果您要查看本帖隐藏内容请回复


格式工厂01.jpg
格式工厂02.jpg
Exact Audio Copy V1.3 from 2. September 2016

EAC 抓取日志文件从15. 十一月 2017, 18:51

高胜美 / 山地情歌

使用驱动器  :TEAC    CD-W540E   Adapter: 1  ID: 0

读取模式      : 可靠Secure
使用精确流     : 是
清空音频缓存    : 是
使用 C2 指示器 : 否

读取偏移校正:               : 686
读取 Lead-In 和 Lead-Out : 否
用静音填充抓取中丢失偏移的采样       : 是
去除首尾静音块               : 否
在CRC 计算中使用了空样本       : 是
已用接口                  : 已安装外部 ASPI 接口

所用输出模式: : 内部 WAV 函数
样本格式    : 44.100 Hz; 16 Bit; 立体声


已抓取 CD 的 TOC

     音轨 |    起始    |    长度    |  起始扇区  |  结束扇区  
    --------------------------------------------
      1 |  0:00.00 |  3:21.00 |      0 |  15074
      2 |  3:21.00 |  3:03.45 |  15075 |  28844
      3 |  6:24.45 |  3:03.02 |  28845 |  42571
      4 |  9:27.47 |  2:57.33 |  42572 |  55879
      5 | 12:25.05 |  3:56.12 |  55880 |  73591
      6 | 16:21.17 |  3:03.05 |  73592 |  87321
      7 | 19:24.22 |  3:24.65 |  87322 | 102686
      8 | 22:49.12 |  2:39.58 | 102687 | 114669
      9 | 25:28.70 |  3:01.15 | 114670 | 128259
     10 | 28:30.10 |  3:17.15 | 128260 | 143049
     11 | 31:47.25 |  3:05.10 | 143050 | 156934
     12 | 34:52.35 |  3:52.15 | 156935 | 174349


范围状态及错误

已选择范围

     文件名 C:\Users\Administrator\Desktop\高胜美 - 山地情歌.wav

     峰值电平 100.0 %
     抓取速度 1.2 X
     范围质量 99.9 %
     复制 CRC F8753AEC
     复制成功

没有错误发生

状态报告结尾

---- CUETools DB Plugin V2.1.6

[CTDB TOCID: fLbWvI_XkCEYa1qA0uN026O5fjk-] found
Submit result: already submitted
Track | CTDB Status
  1   | (2/2) Accurately ripped
  2   | (2/2) Accurately ripped
  3   | (2/2) Accurately ripped
  4   | (2/2) Accurately ripped
  5   | (2/2) Accurately ripped
  6   | (2/2) Accurately ripped
  7   | (2/2) Accurately ripped
  8   | (2/2) Accurately ripped
  9   | (2/2) Accurately ripped
10   | (2/2) Accurately ripped
11   | (2/2) Accurately ripped
12   | (2/2) Accurately ripped


==== 记录校验日志 1FF485493AA3131CEDB4CAD065257A180E6E226B1C380D928603FE24104C467B ====

试听连接:
游客,如果您要查看本帖隐藏内容请回复

评分

参与人数 1威望 +3 金钱 +100 收起 理由
天下太平 + 3 + 100 赞一个!

查看全部评分

回复

使用道具 举报

8

主题

812

帖子

18

威望

中级会员

Rank: 3Rank: 3Rank: 3

交易诚信度
0
注册时间
2007-4-4
发表于 2017-11-16 18:28 | 显示全部楼层
谢谢分享 高胜美-山地情歌
回复 支持 反对

使用道具 举报

409

主题

2911

帖子

262

威望

版主

Rank: 10

优秀斑竹奖

交易诚信度
0
注册时间
2011-11-30
QQ
发表于 2017-11-16 18:29 | 显示全部楼层
2张好碟,高胜美的要下来更新之前存的,暗兄抓得好
分享音频一般仅一星期有效期,欲下从速,主题带有WAV/百度的才是有效,音乐CD唱片交流Q群:386519562
回复 支持 反对

使用道具 举报

0

主题

184

帖子

1

威望

初级会员

Rank: 2Rank: 2

交易诚信度
0
注册时间
2014-1-29
发表于 2017-11-16 18:36 | 显示全部楼层
靓碟不错,收下了
回复 支持 反对

使用道具 举报

0

主题

37

帖子

0

威望

新手上路

Rank: 1

交易诚信度
0
注册时间
2017-10-27
发表于 2017-11-16 18:48 来自家电论坛网手机触屏版 | 显示全部楼层
找到家了
回复 支持 反对

使用道具 举报

139

主题

1054

帖子

12

威望

高级会员

Rank: 4Rank: 4Rank: 4Rank: 4

交易诚信度
16
注册时间
2012-12-26
发表于 2017-11-16 19:27 | 显示全部楼层
两张都是好碟,谢谢jb兄。
回复 支持 反对

使用道具 举报

16

主题

1024

帖子

2

威望

初级会员

Rank: 2Rank: 2

交易诚信度
0
注册时间
2005-8-25
发表于 2017-11-16 19:37 来自家电论坛网手机触屏版 | 显示全部楼层
本帖最后由 last 于 2017-11-16 20:41 编辑

谢谢楼主了,原版唱片音质肯定好。
回复 支持 反对

使用道具 举报

0

主题

233

帖子

0

威望

初级会员

Rank: 2Rank: 2

交易诚信度
2
注册时间
2005-3-2
发表于 2017-11-16 19:47 | 显示全部楼层
版本没见过,支持高品质原创资源
回复 支持 反对

使用道具 举报

0

主题

453

帖子

0

威望

新手上路

Rank: 1

交易诚信度
0
注册时间
2015-11-21
QQ
发表于 2017-11-16 20:14 | 显示全部楼层
高胜美的这一张,太美啦。
回复 支持 反对

使用道具 举报

0

主题

216

帖子

2

威望

初级会员

Rank: 2Rank: 2

交易诚信度
0
注册时间
2008-8-29
发表于 2017-11-16 20:41 | 显示全部楼层
不错的版本,第一张没有听过,谢谢!
回复 支持 反对

使用道具 举报

0

主题

154

帖子

1

威望

初级会员

Rank: 2Rank: 2

交易诚信度
0
注册时间
2016-9-5
发表于 2017-11-16 21:37 | 显示全部楼层
谢谢楼主分享
回复 支持 反对

使用道具 举报

2

主题

202

帖子

0

威望

新手上路

Rank: 1

交易诚信度
0
注册时间
2010-9-9
发表于 2017-11-16 21:38 | 显示全部楼层
谢谢分享
回复 支持 反对

使用道具 举报

0

主题

130

帖子

2

威望

初级会员

Rank: 2Rank: 2

交易诚信度
0
注册时间
2017-10-27
发表于 2017-11-16 22:17 | 显示全部楼层
黯夜流星抓轨的技术是如火纯青,听后有萌生洗版的念头,钦佩。
回复 支持 反对

使用道具 举报

0

主题

185

帖子

0

威望

新手上路

Rank: 1

交易诚信度
0
注册时间
2017-3-17
发表于 2017-11-16 22:23 | 显示全部楼层
收藏精品,谢谢分享。
回复 支持 反对

使用道具 举报

0

主题

67

帖子

0

威望

新手上路

Rank: 1

交易诚信度
0
注册时间
2017-10-22
发表于 2017-11-16 23:50 | 显示全部楼层
谢谢楼主 高胜美 - 雷射金曲 12 分享,洗版
回复 支持 反对

使用道具 举报

您需要登录后才可以回帖 登录 | 注册

本版积分规则

关闭

今日推荐上一条 /2 下一条

小黑屋|Archiver|手机版|客服热线:010-68636033|广告合作|家电联盟网 ( 京公网安备11010702000821 京ICP证041102号,京ICP备09075138号-3

GMT+8, 2018-4-25 12:56 , Processed in 0.183007 second(s), 40 queries , Gzip On, Memcache On.

Powered by Discuz! X3.2

© 2001-2013 Comsenz Inc.