请选择 进入手机版 | 继续访问电脑版
广告招商

[流行/摇滚/乡村] 邝美云-心中有爱(89年DMI东芝1M TO首版)[追梦者原创][WAV/百度]

查看: 3563|回复: 110

38

主题

203

帖子

48

威望

高级会员

Rank: 4Rank: 4Rank: 4Rank: 4

交易诚信度
0
注册时间
2014-3-9
发表于 2017-7-14 08:52 | 显示全部楼层 |阅读模式

马上注册 家电论坛,众多有奖活动等你来参与!

您需要 登录 才可以下载或查看,没有帐号?注册

x
本帖最后由 a467183678 于 2017-7-14 09:06 编辑

封面_眸目压缩.jpg
碟面_眸目压缩.jpg
封底_眸目压缩.jpg


专辑名称:心中有爱
专辑歌手:邝美云
发行时间:1989-07-31
发行地区:香港
专辑语言:粤语
唱片公司:DMI
曲目数量:10
专辑版本:日本东芝1M TO首版
内圈编码:CDFX-50055 1M TO
资源格式:WAV+CUE+LOG+600dpi高清套图
抓轨方式:EAC软件+日本TEAC-W540E光驱
上传方式:百度网盘

专辑介绍:
      转投DMI后,我们看邝氏演绎风格仍为一种延续,一种个人魅力的全部姿展;还有就是其以前一直都是人美曲柔,而转档新公司后,邝也非常想改变下以前烙下的病根———慢热的格局,愿意尝试首本单曲能火爆窜红的感觉,因为她觉得虽然代表作已有无数,但真正被权威机构肯定,入围最受欢迎的歌曲却没有,不是说邝氏歌曲不能成为流派,或者说徘徊于奖项之外,实在是年末的歌坛派发成绩单时,有种摸不准的坎,原因更复杂,难以表明。   入DMI后,邝想迅速从选歌上掳取歌迷的心,加之新加盟唱片公司出品的东西,大家定会保持好奇心,故开好头炮十分重要。不过从反映和销量上看,邝的这张以暖色夺目的鲜红为基调封套还是颇受落于大众的,其它不说,光是90年初,这张CD引入内地后,曾是音像店高挂进口CD中的珍品,许多歌友都是拿左顾右看后,看着价钱舌头一吐,最后爱不释手的还给店员,那时想得到这张CD是我们梦想之一。

专辑曲目:
01. Fever
02. 心中有爱
03. 单身香水瓶
04. 梦里的家
05. 半生缘
06. 爱得疯了
07. 今后陪伴你
08. 无话都是醉
09. 秋恋
10. 难得一起

资源链接:
游客,如果您要查看本帖隐藏内容请回复


请关注追梦者微信公众号.png

声明:本人原抓作品禁止:转帖.打包转发传播.刻录销售.转卖资源等商业行为。
仅供个人交流试听之用, 请下载于24小时后删除,版权归原唱片公司所有,谢谢合作!



评分

参与人数 1威望 +2 金钱 +100 收起 理由
天下太平 + 2 + 100 神马都是浮云

查看全部评分

资源失效的请直接联系我QQ/微信:467183678
回复

使用道具 举报

38

主题

203

帖子

48

威望

高级会员

Rank: 4Rank: 4Rank: 4Rank: 4

交易诚信度
0
注册时间
2014-3-9
 楼主| 发表于 2017-7-14 09:00 | 显示全部楼层
Exact Audio Copy V1.1 from 23. June 2015

EAC 抓取日志文件从30. 十一月 2015, 14:29

邝美云 / 心中有爱

使用驱动器  :TEAC    CD-W540E   Adapter: 0  ID: 0

读取模式      : 可靠Secure
使用精确流     : 是
清空音频缓存    : 是
使用 C2 指示器 : 否

读取偏移校正:               : 686
读取 Lead-In 和 Lead-Out : 否
用静音填充抓取中丢失偏移的采样       : 是
去除首尾静音块               : 否
在CRC 计算中使用了空样本       : 是
已用接口                  : 已安装外部 ASPI 接口

所用输出模式: : 内部 WAV 函数
样本格式    : 44.100 Hz; 16 Bit; 立体声


已抓取 CD 的 TOC

     音轨 |    起始    |    长度    |  起始扇区  |  结束扇区  
    --------------------------------------------
      1 |  0:00.00 |  3:28.67 |      0 |  15666
      2 |  3:28.67 |  4:26.63 |  15667 |  35679
      3 |  7:55.55 |  3:51.60 |  35680 |  53064
      4 | 11:47.40 |  5:14.10 |  53065 |  76624
      5 | 17:01.50 |  4:14.15 |  76625 |  95689
      6 | 21:15.65 |  4:34.25 |  95690 | 116264
      7 | 25:50.15 |  4:10.42 | 116265 | 135056
      8 | 30:00.57 |  4:10.25 | 135057 | 153831
      9 | 34:11.07 |  4:17.48 | 153832 | 173154
     10 | 38:28.55 |  4:12.22 | 173155 | 192076


范围状态及错误

已选择范围

     文件名 D:\追梦者原抓\邝美云-心中有爱(89年DMI东芝1M TO首版)[追梦者原创]\邝美云-心中有爱(89年DMI东芝1M TO首版)[追梦者原创].wav

     峰值电平 99.0 %
     抓取速度 1.2 X
     范围质量 100.0 %
     复制 CRC B4600E26
     复制成功

没有错误发生


AccurateRip 摘要

音轨  1  精确地校准抓取  2)  [CA596F78]  (AR v1)
音轨  2  精确地校准抓取  2)  [DEA84F1C]  (AR v1)
音轨  3  精确地校准抓取  2)  [5EAA37A9]  (AR v1)
音轨  4  精确地校准抓取  2)  [06DE3781]  (AR v1)
音轨  5  精确地校准抓取  2)  [735A7DB6]  (AR v1)
音轨  6  精确地校准抓取  2)  [5D80D307]  (AR v1)
音轨  7  精确地校准抓取  2)  [B5BC384B]  (AR v1)
音轨  8  精确地校准抓取  2)  [DC86A75E]  (AR v1)
音轨  9  精确地校准抓取  2)  [60899E1F]  (AR v1)
音轨 10  精确地校准抓取  2)  [C084ABD1]  (AR v1)

所有音轨精确校准抓取

状态报告结尾

---- CUETools DB Plugin V2.1.6

[CTDB TOCID: 6qAQXalgnWlZcSYoe8GWz16gGzw-] found
Submit result: 6qAQXalgnWlZcSYoe8GWz16gGzw- has been confirmed
Track | CTDB Status
  1   | (1/1) Accurately ripped
  2   | (1/1) Accurately ripped
  3   | (1/1) Accurately ripped
  4   | (1/1) Accurately ripped
  5   | (1/1) Accurately ripped
  6   | (1/1) Accurately ripped
  7   | (1/1) Accurately ripped
  8   | (1/1) Accurately ripped
  9   | (1/1) Accurately ripped
10   | (1/1) Accurately ripped


==== 记录校验日志 3DDF41396DF886974430969473FB28E64D2CDE62ED51D93A514B70AC886552F7 ====

资源失效的请直接联系我QQ/微信:467183678
回复

使用道具 举报

0

主题

396

帖子

4

威望

中级会员

Rank: 3Rank: 3Rank: 3

交易诚信度
2
注册时间
2009-5-21
发表于 2017-7-14 17:17 | 显示全部楼层
很小资的伤感女人
回复

使用道具 举报

0

主题

308

帖子

0

威望

新手上路

Rank: 1

交易诚信度
0
注册时间
2016-2-18
发表于 2017-7-14 17:22 | 显示全部楼层
谢谢楼主分享
回复

使用道具 举报

0

主题

185

帖子

0

威望

新手上路

Rank: 1

交易诚信度
0
注册时间
2017-3-17
发表于 2017-7-14 22:11 | 显示全部楼层
值得收藏的专辑,谢谢分享。
回复

使用道具 举报

55

主题

733

帖子

2

威望

初级会员

Rank: 2Rank: 2

交易诚信度
0
注册时间
2014-2-7
发表于 2017-7-15 07:37 | 显示全部楼层
感谢分享。
回复

使用道具 举报

0

主题

269

帖子

0

威望

新手上路

Rank: 1

交易诚信度
0
注册时间
2013-2-2
发表于 2017-7-15 08:07 | 显示全部楼层
收下听下好多谢分享!
回复

使用道具 举报

0

主题

156

帖子

0

威望

新手上路

Rank: 1

交易诚信度
0
注册时间
2005-2-18
发表于 2017-7-15 09:23 | 显示全部楼层
好唱片,那个年代我还很年轻。
回复

使用道具 举报

5

主题

831

帖子

1

威望

中级会员

Rank: 3Rank: 3Rank: 3

交易诚信度
10
注册时间
2006-4-17
发表于 2017-7-15 14:59 | 显示全部楼层

谢谢楼主分享
回复

使用道具 举报

2

主题

206

帖子

0

威望

新手上路

Rank: 1

交易诚信度
0
注册时间
2010-9-9
发表于 2017-7-15 15:14 | 显示全部楼层
谢谢分享
回复

使用道具 举报

0

主题

124

帖子

0

威望

新手上路

Rank: 1

交易诚信度
0
注册时间
2017-2-16
发表于 2017-7-15 18:00 | 显示全部楼层
邝美人的歌耐听,谢谢楼主放出好版本
回复

使用道具 举报

0

主题

72

帖子

0

威望

新手上路

Rank: 1

交易诚信度
0
注册时间
2007-12-1
发表于 2017-7-15 21:24 | 显示全部楼层
谢谢贵宾在此发碟!
回复

使用道具 举报

0

主题

475

帖子

0

威望

新手上路

Rank: 1

交易诚信度
0
注册时间
2015-11-21
QQ
发表于 2017-7-15 23:35 | 显示全部楼层
支持精心编辑的资源分享
回复

使用道具 举报

0

主题

173

帖子

2

威望

初级会员

Rank: 2Rank: 2

交易诚信度
0
注册时间
2009-4-9
发表于 2017-7-16 11:51 | 显示全部楼层
感谢楼主分享邝美云的好音乐
回复

使用道具 举报

0

主题

156

帖子

1

威望

初级会员

Rank: 2Rank: 2

交易诚信度
0
注册时间
2016-9-5
发表于 2017-7-16 22:41 | 显示全部楼层
谢谢楼主分享
回复

使用道具 举报

您需要登录后才可以回帖 登录 | 注册

本版积分规则

小黑屋|Archiver|手机版|客服热线:010-68636033 QQ群:194098586|广告合作|家电联盟网 ( 京公网安备11010702000821 京ICP证041102号,京ICP备09075138号-3

GMT+8, 2018-9-19 17:21 , Processed in 0.297257 second(s), 44 queries , Gzip On, Memcache On.

Powered by Discuz! X3.2 Licensed

© 2001-2013 Comsenz Inc.