请选择 进入手机版 | 继续访问电脑版
广告招商

[流行/摇滚/乡村] 新时代影音公司杨钰莹-风含情水含笑[WAV/百度云盘]

查看: 3803|回复: 127

425

主题

5654

帖子

366

威望

版主

Rank: 10

积极参与奖

交易诚信度
8
注册时间
2007-12-31
QQ
发表于 2017-5-28 02:20 | 显示全部楼层 |阅读模式

马上注册 家电论坛,众多有奖活动等你来参与!

您需要 登录 才可以下载或查看,没有帐号?注册

x
本帖最后由 音声音世 于 2017-5-28 20:33 编辑

新时代影音公司杨钰莹-风含情水含笑[WAV/百度云盘]



本人所发的每一个帖子都是本人亲自用正版CD原抓,音质绝对保证

游客,如果您要查看本帖隐藏内容请回复

解压密码   音声音世原抓CD                                               

《风含情水含笑》是杨钰莹1993年由广州新时代出版的三张甜歌专辑。其中《风含情水含笑》是专辑里面的一首主打歌,该张专辑当年创下100万张销售记录,获白金唱片奖,年度最畅销专辑奖。
歌曲以悠扬的旋律,舒展的节奏,描绘出波光水影中一幅美妙的画图:小阿妹驾着小船,去迎接凯旋而归的心上人。歌曲的音乐富于民间风韵,歌词语言清新流畅,刻画了小阿妹幸福喜悦而又羞涩的神态。

IMG_20170528_020823_HDR.jpg IMG_20170528_020835.jpg IMG_20170528_020845_HDR.jpg

Exact Audio Copy V1.3 from 2. September 2016

EAC 抓取日志文件从7. 四月 2017, 22:58

杨钰莹 音声音世原抓CD / 风含情水含笑

使用驱动器  :HL-DT-STDVD-ROM DH40N   Adapter: 1  ID: 0

读取模式      : 可靠Secure
使用精确流     : 是
清空音频缓存    : 是
使用 C2 指示器 : 否

组合读写偏移校正:             : 0
读取 Lead-In 和 Lead-Out : 否
用静音填充抓取中丢失偏移的采样       : 是
去除首尾静音块               : 否
在CRC 计算中使用了空样本       : 是
已用接口                  : Win NT 及 2000 本地 Win32 接口

所用输出模式: : 内部 WAV 函数
样本格式    : 44.100 Hz; 16 Bit; 立体声


已抓取 CD 的 TOC

     音轨 |    起始    |    长度    |  起始扇区  |  结束扇区  
    --------------------------------------------
      1 |  0:00.32 |  4:18.13 |     32 |  19394
      2 |  4:18.45 |  4:06.15 |  19395 |  37859
      3 |  8:24.60 |  3:43.60 |  37860 |  54644
      4 | 12:08.45 |  3:23.22 |  54645 |  69891
      5 | 15:31.67 |  4:06.23 |  69892 |  88364
      6 | 19:38.15 |  3:26.10 |  88365 | 103824
      7 | 23:04.25 |  4:33.62 | 103825 | 124361
      8 | 27:38.12 |  3:39.30 | 124362 | 140816
      9 | 31:17.42 |  4:15.10 | 140817 | 159951
     10 | 35:32.52 |  3:54.58 | 159952 | 177559
     11 | 39:27.35 |  4:29.47 | 177560 | 197781
     12 | 43:57.07 |  3:22.68 | 197782 | 212999


范围状态及错误

已选择范围

     文件名 E:\新建文件夹\杨钰莹 音声音世原抓CD - 风含情水含笑\杨钰莹 音声音世原抓CD - 风含情水含笑.wav

     峰值电平 100.0 %
     抓取速度 2.5 X
     范围质量 99.7 %
     复制 CRC E4B12C8F
     复制成功

没有错误发生

状态报告结尾

---- CUETools DB Plugin V2.1.6

[CTDB TOCID: .hydmWkDCibju.UaEDGIbDL2B.M-] disk not present in database
Submit result: 请求被中止: 请求已被取消。




此资源供爱好音乐的朋友交流,请您于下载二十四小时后删除。
如您喜欢本资源,请购买正版CD,切勿用于商业目的。

评分

参与人数 1威望 +2 金钱 +100 收起 理由
天下太平 + 2 + 100 神马都是浮云

查看全部评分

微信号17502199718   
发烧音响CD群40361905(不定期上传本人原版CD抓轨WAV)
回复

使用道具 举报

71

主题

1546

帖子

4

威望

中级会员

Rank: 3Rank: 3Rank: 3

交易诚信度
9
注册时间
2011-10-7
发表于 2017-5-28 03:25 | 显示全部楼层
经典了,谢谢分享
音乐虫子
回复 支持 反对

使用道具 举报

0

主题

52

帖子

1

威望

初级会员

Rank: 2Rank: 2

交易诚信度
0
注册时间
2017-1-27
发表于 2017-5-28 08:04 | 显示全部楼层
这张经典,感谢分享
回复 支持 反对

使用道具 举报

157

主题

3572

帖子

55

威望

特级会员

Rank: 5Rank: 5Rank: 5Rank: 5Rank: 5

交易诚信度
4
注册时间
2006-8-5
发表于 2017-5-28 13:34 | 显示全部楼层
经典了,谢谢分享
回复 支持 反对

使用道具 举报

0

主题

103

帖子

0

威望

新手上路

Rank: 1

交易诚信度
0
注册时间
2015-7-18
发表于 2017-5-28 14:59 | 显示全部楼层
喜欢下了
回复 支持 反对

使用道具 举报

2

主题

409

帖子

1

威望

初级会员

Rank: 2Rank: 2

交易诚信度
0
注册时间
2005-5-16
发表于 2017-5-28 15:34 | 显示全部楼层
xiexie
回复 支持 反对

使用道具 举报

2

主题

409

帖子

1

威望

初级会员

Rank: 2Rank: 2

交易诚信度
0
注册时间
2005-5-16
发表于 2017-5-28 15:52 | 显示全部楼层
RAR解压密码是啥?

点评

* okap
到底是哪个,我找不到  详情 回复 发表于 2018-1-12 15:54
你好 已经编辑了  详情 回复 发表于 2017-5-28 20:59
回复 支持 反对

使用道具 举报

0

主题

230

帖子

0

威望

新手上路

Rank: 1

交易诚信度
0
注册时间
2015-3-1
发表于 2017-5-28 20:30 | 显示全部楼层
没听过啊,欣赏一下。
回复 支持 反对

使用道具 举报

71

主题

1546

帖子

4

威望

中级会员

Rank: 3Rank: 3Rank: 3

交易诚信度
9
注册时间
2011-10-7
发表于 2017-5-28 20:34 | 显示全部楼层
谢谢分享
音乐虫子
回复 支持 反对

使用道具 举报

425

主题

5654

帖子

366

威望

版主

Rank: 10

积极参与奖

交易诚信度
8
注册时间
2007-12-31
QQ
 楼主| 发表于 2017-5-28 20:59 | 显示全部楼层
naozhong 发表于 2017-5-28 15:52
RAR解压密码是啥?

你好 已经编辑了
微信号17502199718   
发烧音响CD群40361905(不定期上传本人原版CD抓轨WAV)
回复 支持 反对

使用道具 举报

2

主题

205

帖子

0

威望

新手上路

Rank: 1

交易诚信度
0
注册时间
2010-9-9
发表于 2017-5-28 21:25 | 显示全部楼层
谢谢分享
回复 支持 反对

使用道具 举报

0

主题

60

帖子

0

威望

新手上路

Rank: 1

交易诚信度
0
注册时间
2013-10-22
发表于 2017-5-29 01:50 | 显示全部楼层
谢谢分享。
回复 支持 反对

使用道具 举报

5

主题

830

帖子

1

威望

中级会员

Rank: 3Rank: 3Rank: 3

交易诚信度
10
注册时间
2006-4-17
发表于 2017-5-29 11:17 | 显示全部楼层
谢谢分享
回复 支持 反对

使用道具 举报

2

主题

361

帖子

1

威望

初级会员

Rank: 2Rank: 2

交易诚信度
0
注册时间
2013-6-12
发表于 2017-5-29 11:55 | 显示全部楼层
谢谢楼主的分享
回复 支持 反对

使用道具 举报

0

主题

461

帖子

0

威望

新手上路

Rank: 1

交易诚信度
0
注册时间
2015-11-21
QQ
发表于 2017-5-30 01:41 | 显示全部楼层
支持无私分享,我喜爱的歌手的
回复 支持 反对

使用道具 举报

您需要登录后才可以回帖 登录 | 注册

本版积分规则

小黑屋|Archiver|手机版|客服热线:010-68636033|广告合作|家电联盟网 ( 京公网安备11010702000821 京ICP证041102号,京ICP备09075138号-3

GMT+8, 2018-7-21 12:14 , Processed in 0.156790 second(s), 46 queries , Gzip On, Memcache On.

Powered by Discuz! X3.2 Licensed

© 2001-2013 Comsenz Inc.