请选择 进入手机版 | 继续访问电脑版
广告招商

[流行/摇滚/乡村] 日版迈克尔杰克逊精选双CD (WAV/百度)

查看: 9809|回复: 279

417

主题

5610

帖子

366

威望

版主

Rank: 10

积极参与奖

交易诚信度
8
注册时间
2007-12-31
QQ
发表于 2016-11-23 17:09 | 显示全部楼层 |阅读模式

马上注册 家电论坛,众多有奖活动等你来参与!

您需要 登录 才可以下载或查看,没有帐号?注册

x
本帖最后由 音声音世 于 2016-11-23 19:23 编辑

日版迈克尔杰克逊精选双CD  (WAV/百度)

本人所发的每一个帖子都是本人亲自用正版CD原抓,音质绝对保证




游客,如果您要查看本帖隐藏内容请回复



IMG_1268.jpg IMG_1270.jpg IMG_1269.jpg


Exact Audio Copy V1.3 from 2. September 2016

EAC 抓取日志文件从22. 十一月 2016, 19:43

Michael Jackson 音声音世原抓CD / History - Past, Present And Future Book I (Disc-1: History Begins)

使用驱动器  :TSSTcorpDVD-ROM SH-118AB   Adapter: 1  ID: 0

读取模式      : 可靠Secure
使用精确流     : 是
清空音频缓存    : 是
使用 C2 指示器 : 否

组合读写偏移校正:             : 0
读取 Lead-In 和 Lead-Out : 否
用静音填充抓取中丢失偏移的采样       : 是
去除首尾静音块               : 否
在CRC 计算中使用了空样本       : 是
已用接口                  : Win NT 及 2000 本地 Win32 接口

所用输出模式: : 内部 WAV 函数
样本格式    : 44.100 Hz; 16 Bit; 立体声


已抓取 CD 的 TOC

     音轨 |    起始    |    长度    |  起始扇区  |  结束扇区  
    --------------------------------------------
      1 |  0:00.00 |  4:54.02 |      0 |  22051
      2 |  4:54.02 |  4:57.38 |  22052 |  44364
      3 |  9:51.40 |  4:16.02 |  44365 |  63566
      4 | 14:07.42 |  3:40.53 |  63567 |  80119
      5 | 17:48.20 |  3:38.17 |  80120 |  96486
      6 | 21:26.37 |  4:07.15 |  96487 | 115026
      7 | 25:33.52 |  4:12.18 | 115027 | 133944
      8 | 29:45.70 |  5:19.40 | 133945 | 157909
      9 | 35:05.35 |  5:57.52 | 157910 | 184736
     10 | 41:03.12 |  4:18.73 | 184737 | 204159
     11 | 45:22.10 |  3:42.05 | 204160 | 220814
     12 | 49:04.15 |  3:59.62 | 220815 | 238801
     13 | 53:04.02 |  6:05.03 | 238802 | 266179
     14 | 59:09.05 |  6:04.05 | 266180 | 293484
     15 | 65:13.10 |  6:26.70 | 293485 | 322504


范围状态及错误

已选择范围

     文件名 G:\WAV无损音乐\Michael Jackson\Michael Jackson 音声音世原抓CD - History - Past, Present And Future Book I (Disc-1- History Begins)\Michael Jackson 音声音世原抓CD - History - Past, Present And Future Book I (Disc-1- History Begins).wav

     峰值电平 100.0 %
     抓取速度 3.4 X
     范围质量 99.9 %
     复制 CRC 17093B37
     复制成功

没有错误发生

状态报告结尾

---- CUETools DB Plugin V2.1.6

[CTDB TOCID: 1X2gjyf3WkAawJ5FYU0G4VSCBYY-] found
Submit result: 1X2gjyf3WkAawJ5FYU0G4VSCBYY- has been confirmed
Track | CTDB Status
  1   | ( 99/101) Accurately ripped, or (1/101) differs in 31 samples @01:59:18-01:59:19
  2   | ( 99/101) Accurately ripped
  3   | (100/101) Accurately ripped
  4   | (100/101) Accurately ripped
  5   | (100/101) Accurately ripped
  6   | ( 98/101) Accurately ripped
  7   | ( 99/101) Accurately ripped
  8   | ( 98/101) Accurately ripped
  9   | ( 99/101) Accurately ripped
10   | ( 99/101) Accurately ripped
11   | ( 99/101) Accurately ripped
12   | ( 99/101) Accurately ripped
13   | (100/101) Accurately ripped
14   | ( 96/101) Accurately ripped
15   | ( 96/101) Accurately ripped



Exact Audio Copy V1.3 from 2. September 2016

EAC 抓取日志文件从22. 十一月 2016, 20:00

Michael Jackson 音声音世原抓CD / HIStory CD2

使用驱动器  :TSSTcorpDVD-ROM SH-118AB   Adapter: 1  ID: 0

读取模式      : 可靠Secure
使用精确流     : 是
清空音频缓存    : 是
使用 C2 指示器 : 否

读取偏移校正:               : 6
读取 Lead-In 和 Lead-Out : 否
用静音填充抓取中丢失偏移的采样       : 是
去除首尾静音块               : 否
在CRC 计算中使用了空样本       : 是
已用接口                  : Win NT 及 2000 本地 Win32 接口

所用输出模式: : 内部 WAV 函数
样本格式    : 44.100 Hz; 16 Bit; 立体声


已抓取 CD 的 TOC

     音轨 |    起始    |    长度    |  起始扇区  |  结束扇区  
    --------------------------------------------
      1 |  0:00.00 |  4:38.52 |      0 |  20901
      2 |  4:38.52 |  4:44.20 |  20902 |  42221
      3 |  9:22.72 |  5:44.13 |  42222 |  68034
      4 | 15:07.10 |  4:21.05 |  68035 |  87614
      5 | 19:28.15 |  6:46.10 |  87615 | 118074
      6 | 26:14.25 |  4:49.35 | 118075 | 139784
      7 | 31:03.60 |  4:42.00 | 139785 | 160934
      8 | 35:45.60 |  4:02.47 | 160935 | 179131
      9 | 39:48.32 |  5:45.25 | 179132 | 205031
     10 | 45:33.57 |  4:28.08 | 205032 | 225139
     11 | 50:01.65 |  4:32.35 | 225140 | 245574
     12 | 54:34.25 |  4:49.40 | 245575 | 267289
     13 | 59:23.65 |  6:37.32 | 267290 | 297096
     14 | 66:01.22 |  6:13.63 | 297097 | 325134
     15 | 72:15.10 |  4:57.37 | 325135 | 347446


范围状态及错误

已选择范围

     文件名 G:\WAV无损音乐\Michael Jackson\Michael Jackson 音声音世原抓CD - HIStory CD2\Michael Jackson 音声音世原抓CD - HIStory CD2.wav

     峰值电平 100.0 %
     抓取速度 6.7 X
     范围质量 100.0 %
     复制 CRC 7ACA2329
     复制成功

没有错误发生


AccurateRip 摘要

音轨  1  精确地校准抓取  16)  [492E6165]  (AR v2)
音轨  2  精确地校准抓取  16)  [E407C144]  (AR v2)
音轨  3  精确地校准抓取  17)  [112AB42C]  (AR v2)
音轨  4  精确地校准抓取  17)  [DAF00D79]  (AR v2)
音轨  5  精确地校准抓取  17)  [3F28BF94]  (AR v2)
音轨  6  精确地校准抓取  17)  [6BC8AC5D]  (AR v2)
音轨  7  精确地校准抓取  17)  [6A50955E]  (AR v2)
音轨  8  精确地校准抓取  16)  [7952B7D9]  (AR v2)
音轨  9  精确地校准抓取  18)  [F7CC29EA]  (AR v2)
音轨 10  精确地校准抓取  17)  [263D1786]  (AR v2)
音轨 11  精确地校准抓取  16)  [82BCE95C]  (AR v2)
音轨 12  精确地校准抓取  15)  [8EC9470E]  (AR v2)
音轨 13  精确地校准抓取  17)  [B6A295EC]  (AR v2)
音轨 14  精确地校准抓取  16)  [D9AFC10B]  (AR v2)
音轨 15  精确地校准抓取  17)  [9264A7B5]  (AR v2)

所有音轨精确校准抓取

状态报告结尾

---- CUETools DB Plugin V2.1.6

[CTDB TOCID: VWCVun81wxCzBzJ4QHb5wpvJ0qs-] found
Submit result: VWCVun81wxCzBzJ4QHb5wpvJ0qs- has been confirmed
Track | CTDB Status
  1   | (59/59) Accurately ripped
  2   | (58/59) Accurately ripped
  3   | (58/59) Accurately ripped
  4   | (58/59) Accurately ripped
  5   | (58/59) Accurately ripped
  6   | (58/59) Accurately ripped
  7   | (57/59) Accurately ripped
  8   | (58/59) Accurately ripped
  9   | (57/59) Accurately ripped
10   | (58/59) Accurately ripped
11   | (58/59) Accurately ripped
12   | (56/59) Accurately ripped, or (1/59) differs in 120 samples @02:56:17-02:56:18
13   | (57/59) Accurately ripped
14   | (58/59) Accurately ripped
15   | (57/59) Accurately ripped



此资源供爱好音乐的朋友交流,请您于下载二十四小时后删除。
如您喜欢本资源,请购买正版CD,切勿用于商业目的。



评分

参与人数 1威望 +2 金钱 +100 收起 理由
天下太平 + 2 + 100 很给力!

查看全部评分

微信号17502199718   
发烧音响CD群40361905(不定期上传本人原版CD抓轨WAV)
回复

使用道具 举报

2

主题

1907

帖子

210

威望

核心会员

Rank: 7Rank: 7Rank: 7Rank: 7Rank: 7Rank: 7Rank: 7

交易诚信度
0
注册时间
2006-6-23
发表于 2016-11-23 17:52 | 显示全部楼层
正宗日版,还是双碟装,一次听个够!谢谢分享,辛苦辛苦。
回复 支持 反对

使用道具 举报

11

主题

757

帖子

15

威望

中级会员

Rank: 3Rank: 3Rank: 3

交易诚信度
0
注册时间
2003-6-25
发表于 2016-11-23 19:48 | 显示全部楼层
好碟,好盘,谢谢
四十年华!
回复 支持 反对

使用道具 举报

22

主题

2798

帖子

17

威望

高级会员

Rank: 4Rank: 4Rank: 4Rank: 4

交易诚信度
1
注册时间
2004-6-18
发表于 2016-11-23 21:31 | 显示全部楼层
乐坛天皇!
回复 支持 反对

使用道具 举报

20

主题

3116

帖子

0

威望

禁止发言

交易诚信度
0
注册时间
2016-10-10
发表于 2016-11-23 23:23 | 显示全部楼层
提示: 作者被禁止或删除 内容自动屏蔽
回复 支持 反对

使用道具 举报

2

主题

173

帖子

0

威望

新手上路

Rank: 1

交易诚信度
0
注册时间
2016-5-23
发表于 2016-11-24 09:47 | 显示全部楼层
谢谢分享
回复 支持 反对

使用道具 举报

0

主题

15

帖子

0

威望

新手上路

Rank: 1

交易诚信度
0
注册时间
2012-5-22
发表于 2016-11-24 16:41 | 显示全部楼层
精品收藏~谢谢分享!!
回复 支持 反对

使用道具 举报

14

主题

625

帖子

2

威望

初级会员

Rank: 2Rank: 2

交易诚信度
0
注册时间
2010-9-30
发表于 2016-11-24 21:32 | 显示全部楼层
这个不能错过,谢谢
回复 支持 反对

使用道具 举报

2

主题

319

帖子

0

威望

新手上路

Rank: 1

交易诚信度
0
注册时间
2014-11-28
发表于 2016-11-25 15:17 | 显示全部楼层
乐坛经典金曲。谢谢楼主分享好音乐
回复 支持 反对

使用道具 举报

0

主题

156

帖子

0

威望

新手上路

Rank: 1

交易诚信度
0
注册时间
2005-2-18
发表于 2016-11-25 20:37 | 显示全部楼层
95年我买过这么一套磁带,怀旧啊
回复 支持 反对

使用道具 举报

3

主题

1194

帖子

8

威望

中级会员

Rank: 3Rank: 3Rank: 3

交易诚信度
0
注册时间
2016-1-4
发表于 2016-11-25 22:15 | 显示全部楼层
经典 感谢音声音世
回复 支持 反对

使用道具 举报

0

主题

5

帖子

0

威望

新手上路

Rank: 1

交易诚信度
0
注册时间
2016-11-5
发表于 2016-11-26 01:17 | 显示全部楼层
谢谢分享!
回复 支持 反对

使用道具 举报

2

主题

48

帖子

0

威望

新手上路

Rank: 1

交易诚信度
0
注册时间
2011-6-4
发表于 2016-11-26 15:21 | 显示全部楼层
顶起
回复 支持 反对

使用道具 举报

0

主题

162

帖子

0

威望

新手上路

Rank: 1

交易诚信度
0
注册时间
2009-10-19
发表于 2016-11-28 08:40 | 显示全部楼层
谢谢分享,辛苦辛苦。
回复 支持 反对

使用道具 举报

0

主题

30

帖子

0

威望

新手上路

Rank: 1

交易诚信度
0
注册时间
2016-11-26
发表于 2016-11-28 11:00 | 显示全部楼层
dffddfdfd
回复 支持 反对

使用道具 举报

您需要登录后才可以回帖 登录 | 注册

本版积分规则

关闭

今日推荐上一条 /2 下一条

小黑屋|Archiver|手机版|客服热线:010-68636033|广告合作|家电联盟网 ( 京公网安备11010702000821 京ICP证041102号,京ICP备09075138号-3

GMT+8, 2018-4-25 13:05 , Processed in 0.187238 second(s), 43 queries , Gzip On, Memcache On.

Powered by Discuz! X3.2

© 2001-2013 Comsenz Inc.