请选择 进入手机版 | 继续访问电脑版
广告招商

[流行/摇滚/乡村] 石嶺聡子 - INNOCENT-SATOKO Vocal NO.1-WAV百度

查看: 3250|回复: 72

21

主题

130

帖子

14

威望

中级会员

Rank: 3Rank: 3Rank: 3

交易诚信度
0
注册时间
2016-6-24
发表于 2016-11-20 09:21 | 显示全部楼层 |阅读模式

马上注册 家电论坛,众多有奖活动等你来参与!

您需要 登录 才可以下载或查看,没有帐号?注册

x
本帖最后由 天下太平 于 2016-11-20 18:19 编辑

分享给大家一张日本歌手的唱片~
石岭聪子,出生在冲绳的女孩,代表作《花》被周华健改编为《花心》受到好评~石岭聪子嗓音干净、清澈,高音自如,是我喜欢的歌手之一
出道到现在一共发行了五张唱片,这是第一张~~
八卦说吸食大麻,影响发展了~
歌曲轻快、活力强,体现了年轻人的朝气活泼~
配乐巧妙,贴合歌曲,配器多样、编曲极为用心~
不懂歌词也能体会到制作者的用心~
只是可惜二十多年专辑甚少~

游客,如果您要查看本帖隐藏内容请回复


Exact Audio Copy V1.1 from 23. June 2015

EAC 抓取日志文件从19. 十一月 2016, 21:30

石嶺聡子 / INNOCENT-SATOKO Vocal NO.1

使用驱动器  :HL-DT-STDVDRAM GU90N   Adapter: 1  ID: 0

读取模式      : 可靠Secure
使用精确流     : 是
清空音频缓存    : 是
使用 C2 指示器 : 否

读取偏移校正:               : 102
读取 Lead-In 和 Lead-Out : 否
用静音填充抓取中丢失偏移的采样       : 是
去除首尾静音块               : 否
在CRC 计算中使用了空样本       : 是
已用接口                  : Win NT 及 2000 本地 Win32 接口

所用输出模式: : 内部 WAV 函数
样本格式    : 44.100 Hz; 16 Bit; 立体声


已抓取 CD 的 TOC

     音轨 |    起始    |    长度    |  起始扇区  |  结束扇区  
    --------------------------------------------
      1 |  0:00.00 |  4:13.25 |      0 |  18999
      2 |  4:13.25 |  4:24.55 |  19000 |  38854
      3 |  8:38.05 |  4:37.20 |  38855 |  59649
      4 | 13:15.25 |  3:31.12 |  59650 |  75486
      5 | 16:46.37 |  4:18.73 |  75487 |  94909
      6 | 21:05.35 |  4:28.22 |  94910 | 115031
      7 | 25:33.57 |  3:59.05 | 115032 | 132961
      8 | 29:32.62 |  4:57.30 | 132962 | 155266
      9 | 34:30.17 |  4:31.55 | 155267 | 175646
     10 | 39:01.72 |  4:54.28 | 175647 | 197724
     11 | 43:56.25 |  4:16.67 | 197725 | 216991
     12 | 48:13.17 |  4:38.35 | 216992 | 237876


范围状态及错误

已选择范围

     文件名 C:\Users\Vision Wei\Desktop\石嶺聡子 - INNOCENT-SATOKO Vocal NO.1\石嶺聡子 - INNOCENT-SATOKO Vocal NO.1.wav

     峰值电平 100.0 %
     抓取速度 4.6 X
     范围质量 100.0 %
     复制 CRC 9E9E68E7
     复制成功

没有错误发生


AccurateRip 摘要

音轨  1  精确地校准抓取  6)  [F29ADDD1]  (AR v2)
音轨  2  精确地校准抓取  6)  [F8E5F8AA]  (AR v2)
音轨  3  精确地校准抓取  5)  [B06AF721]  (AR v2)
音轨  4  精确地校准抓取  6)  [768494E2]  (AR v2)
音轨  5  精确地校准抓取  6)  [5488CDA9]  (AR v2)
音轨  6  精确地校准抓取  5)  [6E112755]  (AR v2)
音轨  7  精确地校准抓取  5)  [13DAABA7]  (AR v2)
音轨  8  精确地校准抓取  6)  [F6116091]  (AR v2)
音轨  9  精确地校准抓取  5)  [FA083595]  (AR v2)
音轨 10  精确地校准抓取  6)  [6AB8B1AE]  (AR v2)
音轨 11  精确地校准抓取  5)  [AA0F4FAE]  (AR v2)
音轨 12  精确地校准抓取  5)  [0F0EA3B5]  (AR v2)

所有音轨精确校准抓取

状态报告结尾

---- CUETools DB Plugin V2.1.6

[CTDB TOCID: DQ_SqSqHE8CkgzO4UKFSlnvi_yA-] found
Submit result: DQ_SqSqHE8CkgzO4UKFSlnvi_yA- has been confirmed
Track | CTDB Status
  1   | (12/12) Accurately ripped
  2   | (12/12) Accurately ripped
  3   | (12/12) Accurately ripped
  4   | (12/12) Accurately ripped
  5   | (12/12) Accurately ripped
  6   | (12/12) Accurately ripped
  7   | (12/12) Accurately ripped
  8   | (12/12) Accurately ripped
  9   | (12/12) Accurately ripped
10   | (12/12) Accurately ripped
11   | (12/12) Accurately ripped
12   | (11/12) Accurately ripped, or (1/12) differs in 2096 samples @04:38:15-04:38:17



封底

封底

封面

封面

侧标

侧标

盘面

盘面

评分

参与人数 1威望 +1 金钱 +100 收起 理由
天下太平 + 1 + 100 赞一个!

查看全部评分

回复

使用道具 举报

0

主题

127

帖子

0

威望

新手上路

Rank: 1

交易诚信度
0
注册时间
2016-10-8
发表于 2016-11-21 09:31 | 显示全部楼层
下载听听吧。
回复

使用道具 举报

15

主题

667

帖子

2

威望

初级会员

Rank: 2Rank: 2

交易诚信度
0
注册时间
2010-9-30
发表于 2016-11-21 10:50 | 显示全部楼层
谢谢分享,好听的音乐
回复

使用道具 举报

2

主题

185

帖子

0

威望

新手上路

Rank: 1

交易诚信度
0
注册时间
2016-5-23
发表于 2016-11-21 11:24 | 显示全部楼层
谢谢分享
回复

使用道具 举报

0

主题

266

帖子

0

威望

新手上路

Rank: 1

交易诚信度
0
注册时间
2012-3-4
发表于 2016-11-21 19:16 | 显示全部楼层
谢谢楼主无私分享。
回复

使用道具 举报

8

主题

2786

帖子

57

威望

特级会员

Rank: 5Rank: 5Rank: 5Rank: 5Rank: 5

交易诚信度
0
注册时间
2007-11-7
发表于 2016-11-22 17:28 | 显示全部楼层
雨田出品,必属经典 绑定手机第一帖啊!留这里了
回复

使用道具 举报

0

主题

143

帖子

0

威望

新手上路

Rank: 1

交易诚信度
0
注册时间
2014-4-2
发表于 2016-11-22 19:48 | 显示全部楼层
不太熟悉的歌手试听一下谢谢楼主!
回复

使用道具 举报

5

主题

154

帖子

1

威望

初级会员

Rank: 2Rank: 2

交易诚信度
0
注册时间
2009-10-18
QQ
发表于 2016-11-23 14:48 | 显示全部楼层
感谢分享,谢谢版主~~
回复

使用道具 举报

2

主题

1970

帖子

211

威望

核心会员

Rank: 7Rank: 7Rank: 7Rank: 7Rank: 7Rank: 7Rank: 7

交易诚信度
0
注册时间
2006-6-23
发表于 2016-11-23 17:55 | 显示全部楼层
看介绍不错啊!下载了听听。谢谢分享,辛苦辛苦。
回复

使用道具 举报

13

主题

1128

帖子

2

威望

初级会员

Rank: 2Rank: 2

交易诚信度
0
注册时间
2012-4-10
QQ
发表于 2016-11-25 12:15 | 显示全部楼层
不错不错,值得下载
活到老,学到老!
回复

使用道具 举报

0

主题

156

帖子

0

威望

新手上路

Rank: 1

交易诚信度
0
注册时间
2005-2-18
发表于 2016-11-25 20:40 | 显示全部楼层
听听看,可能会好听。
回复

使用道具 举报

1

主题

155

帖子

-1

威望

乞丐

交易诚信度
0
注册时间
2011-2-5
发表于 2016-11-26 17:04 | 显示全部楼层
看介绍不错,下来听听,谢谢
回复

使用道具 举报

50

主题

1678

帖子

53

威望

特级会员

Rank: 5Rank: 5Rank: 5Rank: 5Rank: 5

交易诚信度
25
注册时间
2004-12-21
发表于 2016-11-27 06:20 | 显示全部楼层
好听的音乐
回复

使用道具 举报

0

主题

230

帖子

0

威望

新手上路

Rank: 1

交易诚信度
0
注册时间
2015-4-25
发表于 2016-11-28 22:16 | 显示全部楼层
没听过,试听下
回复

使用道具 举报

0

主题

156

帖子

1

威望

初级会员

Rank: 2Rank: 2

交易诚信度
0
注册时间
2016-9-5
发表于 2016-11-29 16:06 | 显示全部楼层
谢谢楼主分享
回复

使用道具 举报

您需要登录后才可以回帖 登录 | 注册

本版积分规则

小黑屋|Archiver|手机版|客服热线:010-68636033 QQ群:194098586|广告合作|家电联盟网 ( 京公网安备11010702000821 京ICP证041102号,京ICP备09075138号-3

GMT+8, 2018-12-15 08:06 , Processed in 0.435350 second(s), 44 queries , Gzip On, Memcache On.

Powered by Discuz! X3.2 Licensed

© 2001-2013 Comsenz Inc.