请选择 进入手机版 | 继续访问电脑版
广告招商

[流行/摇滚/乡村] 中唱 区瑞强唱王菲 - Guitar & I 我.吉他II[WAV/百度云盘]

查看: 12084|回复: 250

425

主题

5654

帖子

366

威望

版主

Rank: 10

积极参与奖

交易诚信度
8
注册时间
2007-12-31
QQ
发表于 2016-4-30 16:24 | 显示全部楼层 |阅读模式

马上注册 家电论坛,众多有奖活动等你来参与!

您需要 登录 才可以下载或查看,没有帐号?注册

x
中唱 区瑞强唱王菲 - Guitar & I 我.吉他II[WAV/百度云盘]

本人所发的每一个帖子都是本人亲自用正版CD原抓,音质绝对保证


游客,如果您要查看本帖隐藏内容请回复


区瑞强:1955年7月31日生,香港歌手、音乐人,香港浸会大学毕业生,香港电台DJ。80年代成名,以其独特的田园气息在香港乐坛中独树一格,《陌上归人》、《渔火闪闪》是其代表作。由于他擅长弹结他唱民歌,也可说是推动民歌潮流的重要功臣,因此素有“民歌王子”的称号。


有故事的歌,能感动听者并引起共鸣;有阅历的歌者,能使好歌锦上添花,更能让好歌焕发出一种潜在的魅力。王菲的歌向来以品质和品位获歌迷拥戴,区瑞强则以醇厚耐听、干净无杂质并随着岁月延伸愈加添增韵味的嗓音成为越来越多音乐、音响发烧友的至爱。这把浸润了岁月的声音,带着适意、带着知性、带着对人生透看的淡然、带着无以抵挡的醉人引力,为我们再次演绎这些听不厌的好歌,演绎浸润了岁月印记的人生故事。好歌加靓声,以及独具个性的纯吉他伴奏,成就这张以发烧人声为主旨的专辑

1.约定
2.容易受伤的女人
3.执迷不悔
4.暗涌
5.暧昧
6.爱与痛的边缘
7.如风
8.天与地
9.给自己的情书
10.邮差
11.季侯风
12.偿还
DSC03823.JPG DSC03824.JPG DSC03825.JPG DSC03826.JPG DSC03827.JPG


Exact Audio Copy V1.0 beta 3 from 29. August 2011

EAC 抓取日志文件从29. 四月 2016, 2:18

区瑞强 音声音世原抓CD / Guitar & I 我.吉他II

使用驱动器  :PIONEER DVD-ROM DVD-232   Adapter: 1  ID: 1

读取模式      : 可靠Secure
使用精确流     : 是
清空音频缓存    : 是
使用 C2 指示器 : 否

读取偏移校正:               : 6
读取 Lead-In 和 Lead-Out : 否
用静音填充抓取中丢失偏移的采样       : 是
去除首尾静音块               : 否
在CRC 计算中使用了空样本       : 是
已用接口                  : Win NT 及 2000 本地 Win32 接口

所用输出模式: : 内部 WAV 函数
样本格式    : 44.100 Hz; 16 Bit; 立体声


已抓取 CD 的 TOC

     音轨 |    起始    |    长度    |  起始扇区  |  结束扇区  
    --------------------------------------------
      1 |  0:00.00 |  4:35.01 |      0 |  20625
      2 |  4:35.01 |  4:25.08 |  20626 |  40508
      3 |  9:00.09 |  4:59.37 |  40509 |  62970
      4 | 13:59.46 |  4:11.56 |  62971 |  81851
      5 | 18:11.27 |  4:21.28 |  81852 | 101454
      6 | 22:32.55 |  4:24.02 | 101455 | 121256
      7 | 26:56.57 |  4:18.17 | 121257 | 140623
      8 | 31:14.74 |  4:38.72 | 140624 | 161545
      9 | 35:53.71 |  4:34.34 | 161546 | 182129
     10 | 40:28.30 |  3:43.51 | 182130 | 198905
     11 | 44:12.06 |  4:54.40 | 198906 | 220995
     12 | 49:06.46 |  3:56.68 | 220996 | 238763


范围状态及错误

已选择范围

     文件名 F:\音乐\区瑞强 音声音世原抓CD - Guitar & I 我.吉他II\区瑞强 音声音世原抓CD - Guitar & I 我.吉他II.wav

     峰值电平 99.8 %
     抓取速度 3.9 X
     范围质量 99.9 %
     复制 CRC 411AE41E
     复制成功

没有错误发生


AccurateRip 摘要

音轨  1  精确地校准抓取  1)  [F92B3CE1]  (AR v2)
音轨  2  精确地校准抓取  1)  [94209689]  (AR v2)
音轨  3  精确地校准抓取  1)  [CFC3D836]  (AR v2)
音轨  4  精确地校准抓取  1)  [069B4A0E]  (AR v2)
音轨  5  精确地校准抓取  1)  [21A05D87]  (AR v2)
音轨  6  精确地校准抓取  1)  [064EEBFB]  (AR v2)
音轨  7  精确地校准抓取  1)  [01A2259F]  (AR v2)
音轨  8  精确地校准抓取  1)  [1FBF0510]  (AR v2)
音轨  9  精确地校准抓取  1)  [C8C7E351]  (AR v2)
音轨 10  精确地校准抓取  1)  [8482A855]  (AR v2)
音轨 11  精确地校准抓取  1)  [6FE2D039]  (AR v2)
音轨 12  精确地校准抓取  1)  [D2556AE5]  (AR v2)

所有音轨精确校准抓取

状态报告结尾

---- CUETools DB Plugin V2.1.3

[CTDB TOCID: 2DZ1WZe3_5abEVJ6Y7yOMS0TsuA-] found, Submit result: 2DZ1WZe3_5abEVJ6Y7yOMS0TsuA- has been confirmed
[088e3dbb] (5/6) Accurately ripped
[8465ed27] (1/6) No match

此资源供爱好音乐的朋友交流,请您于下载二十四小时后删除。
如您喜欢本资源,请购买正版CD,切勿用于商业目的。


评分

参与人数 1威望 +1 金钱 +100 收起 理由
天下太平 + 1 + 100 赞一个!

查看全部评分

微信号17502199718   
发烧音响CD群40361905(不定期上传本人原版CD抓轨WAV)
回复

使用道具 举报

0

主题

40

帖子

0

威望

新手上路

Rank: 1

交易诚信度
0
注册时间
2016-4-24
发表于 2016-4-30 17:38 | 显示全部楼层
沙发,谢谢楼主分享
回复 支持 反对

使用道具 举报

1

主题

272

帖子

0

威望

新手上路

Rank: 1

交易诚信度
0
注册时间
2014-11-1
发表于 2016-4-30 19:41 | 显示全部楼层
不错谢谢分享
回复 支持 反对

使用道具 举报

0

主题

81

帖子

0

威望

新手上路

Rank: 1

交易诚信度
0
注册时间
2008-7-20
发表于 2016-5-1 00:09 | 显示全部楼层
人声发烧碟,曲目也不错!
回复 支持 反对

使用道具 举报

0

主题

197

帖子

0

威望

新手上路

Rank: 1

交易诚信度
0
注册时间
2008-2-18
发表于 2016-5-1 00:27 | 显示全部楼层
欧瑞强这张碟以前听过,感觉比较一般,他自己就很有特色,何必去追别人的东东
回复 支持 反对

使用道具 举报

19

主题

292

帖子

0

威望

新手上路

Rank: 1

交易诚信度
0
注册时间
2015-6-15
发表于 2016-5-1 18:59 | 显示全部楼层
谢谢楼主分享,实在辛苦!
回复 支持 反对

使用道具 举报

0

主题

115

帖子

0

威望

初级会员

Rank: 2Rank: 2

交易诚信度
2
注册时间
2008-2-20
发表于 2016-5-2 12:53 | 显示全部楼层
谢谢分享
回复 支持 反对

使用道具 举报

0

主题

262

帖子

0

威望

新手上路

Rank: 1

交易诚信度
0
注册时间
2012-3-4
发表于 2016-5-2 12:56 | 显示全部楼层
谢谢LZ无私奉献。
回复 支持 反对

使用道具 举报

0

主题

219

帖子

0

威望

新手上路

Rank: 1

交易诚信度
0
注册时间
2015-4-25
发表于 2016-5-3 01:18 | 显示全部楼层
听听不同的演绎
回复 支持 反对

使用道具 举报

5

主题

1391

帖子

4

威望

中级会员

Rank: 3Rank: 3Rank: 3

交易诚信度
0
注册时间
2009-2-26
发表于 2016-5-3 15:08 | 显示全部楼层
谢谢分享
回复 支持 反对

使用道具 举报

11

主题

4215

帖子

15

威望

特级会员

Rank: 5Rank: 5Rank: 5Rank: 5Rank: 5

交易诚信度
61
注册时间
2004-10-25
QQ
发表于 2016-5-4 12:47 | 显示全部楼层
这个不错~~~好东西
回复 支持 反对

使用道具 举报

0

主题

16

帖子

0

威望

新手上路

Rank: 1

交易诚信度
0
注册时间
2016-3-10
发表于 2016-5-5 15:55 | 显示全部楼层
感谢斑竹的无私分享
回复 支持 反对

使用道具 举报

1

主题

94

帖子

0

威望

新手上路

Rank: 1

交易诚信度
0
注册时间
2008-2-4
发表于 2016-5-5 21:04 | 显示全部楼层
经典老歌
回复 支持 反对

使用道具 举报

0

主题

114

帖子

0

威望

新手上路

Rank: 1

交易诚信度
0
注册时间
2016-5-5
发表于 2016-5-5 21:16 | 显示全部楼层
真是感谢,谢谢啊
回复 支持 反对

使用道具 举报

5

主题

107

帖子

0

威望

新手上路

Rank: 1

交易诚信度
0
注册时间
2013-2-26
发表于 2016-5-5 21:34 | 显示全部楼层
这碟真是太赞了,非常感谢楼主
回复 支持 反对

使用道具 举报

您需要登录后才可以回帖 登录 | 注册

本版积分规则

小黑屋|Archiver|手机版|客服热线:010-68636033|广告合作|家电联盟网 ( 京公网安备11010702000821 京ICP证041102号,京ICP备09075138号-3

GMT+8, 2018-7-20 22:48 , Processed in 0.233289 second(s), 41 queries , Gzip On, Memcache On.

Powered by Discuz! X3.2 Licensed

© 2001-2013 Comsenz Inc.