请选择 进入手机版 | 继续访问电脑版
广告招商

[蓝调/爵士/R&B] 美国TELARC首版帕尔曼和奥斯卡彼德森 - Side By Side(WAV/百度)

查看: 14148|回复: 284

430

主题

5681

帖子

366

威望

版主

Rank: 10

积极参与奖

交易诚信度
8
注册时间
2007-12-31
QQ
发表于 2016-4-30 14:25 | 显示全部楼层 |阅读模式

马上注册 家电论坛,众多有奖活动等你来参与!

您需要 登录 才可以下载或查看,没有帐号?注册

x
美国TELARC首版帕尔曼和奥斯卡彼德森  - Side By Side(WAV/百度)


本人所发的每一个帖子都是本人亲自用正版CD原抓,音质绝对保证


游客,如果您要查看本帖隐藏内容请回复



这个是一张我认为可以归入发烧碟的唱片。

记得在早先的讨论里对发烧碟有一个观点,就是发烧碟要有三个标准:一是里面的曲目要好听,二是录音的HI-FI效果要好,三是在CD制作上有新技术的使用。这张碟就满足了以上三个条件。

从第一点来看,首先在爵士乐里把小提琴作为主奏乐器就很少见(印象里还有一个格拉佩里)。因此这里面的曲目能给人一种新鲜的感觉。演奏者帕尔曼和奥斯卡彼德森一个在古典界一个在JAZZ界都是大名鼎鼎的人物,居然在这张碟里成功的合作,这本身就是一种音乐的魅力所在。象倍司RAY BROWN也是JAZZ界一流的倍司手。可以说演奏者都具有了一流的水准。碟中的曲目基本上也都属于小编制的,相当于古典里的五重奏性质的演奏。主要以小提琴和钢琴为主。你可以想象在一个鸡尾酒会上,中等强度的灯光映照着大厅,你品着一杯血色吗利,有心无心的欣赏着这些音乐。真是一种享受。

这里面的曲子很容易让你全身放松。由于小提琴在JAZZ里比较少见,以JAZZ的节奏和曲调演奏,真是很特别的情调。这更引证了音乐是无束缚的。

从第二点来看,TELARC公司录制的CD一向讲究HIFI效果,看CD说明书,光MICROPHONE就使用了Sennheiser MKH-20 MKH40;B&K 4004 4011;Schoeps M-221B/MK2(胆咪),Sanken CU-41等。调音台是Neve V-3.监听音箱ATC SCM-20....实际听下来,声场的阔度和纵深都有很好的表现,乐器的结象度也很好,具有很好的现场感,背景燥声也非常低。

从第三点看,在94年,6年半前,telarc公司为录制这张CD就使用了UltraAnalog 20bit-DAC,在20bit到16bit的转化中就已经使用了Apogee UV22 超分辨率编码技术。在CD说明书里专门有一段介绍了新20BIT技术是如何改进CD声音的,大家可以看看。

总之,这张CD作为我个人很喜欢的JAZZ唱片,值得大家收藏。


专辑曲目:

01. Dark Eyes 6:08(黑眼睛)
02. Stormy Weather 4:50(暴雨天)
03. Georgia on my mind 5:42(佐治亚的回忆)
04. Blue Skiess 4:43(蓝天)
05. Misty 5:34(薄雾)
06. Mack the Knife 3:29(老兄,刀子)
07. Nighttime 6:13(夜间)
08. I loves you Porgy 4:47(Porgy我爱你)
09. On the trail 4:33(在小路上)
10. Yours is my heart alone 5:24(你是我心里的孤独)
11. Makin' whoopee 4:44(制造喧闹)
12. Why think about tomorrow 5:23(为什么去想 明天)

DSC03817.JPG DSC03818.JPG DSC03819.JPG DSC03820.JPG DSC03821.JPG DSC03822.JPG



Exact Audio Copy V1.0 beta 3 from 29. August 2011

EAC 抓取日志文件从29. 四月 2016, 16:51

Ithak Perlman, Oscar Peterson 音声音世原抓CD / Side By Side

使用驱动器  :PIONEER DVD-ROM DVD-232   Adapter: 1  ID: 1

读取模式      : 可靠Secure
使用精确流     : 是
清空音频缓存    : 是
使用 C2 指示器 : 否

读取偏移校正:               : 6
读取 Lead-In 和 Lead-Out : 否
用静音填充抓取中丢失偏移的采样       : 是
去除首尾静音块               : 否
在CRC 计算中使用了空样本       : 是
已用接口                  : Win NT 及 2000 本地 Win32 接口

所用输出模式: : 内部 WAV 函数
样本格式    : 44.100 Hz; 16 Bit; 立体声


已抓取 CD 的 TOC

     音轨 |    起始    |    长度    |  起始扇区  |  结束扇区  
    --------------------------------------------
      1 |  0:00.00 |  6:12.73 |      0 |  27972
      2 |  6:12.73 |  4:54.57 |  27973 |  50079
      3 | 11:07.55 |  5:46.00 |  50080 |  76029
      4 | 16:53.55 |  4:45.13 |  76030 |  97417
      5 | 21:38.68 |  5:41.00 |  97418 | 122992
      6 | 27:19.68 |  3:32.42 | 122993 | 138934
      7 | 30:52.35 |  6:18.65 | 138935 | 167349
      8 | 37:11.25 |  4:51.13 | 167350 | 189187
      9 | 42:02.38 |  4:37.72 | 189188 | 210034
     10 | 46:40.35 |  5:29.48 | 210035 | 234757
     11 | 52:10.08 |  4:49.37 | 234758 | 256469
     12 | 56:59.45 |  5:22.60 | 256470 | 280679


范围状态及错误

已选择范围

     文件名 F:\音乐\Ithak Perlman, Oscar Peterson 音声音世原抓CD - Side By Side\Ithak Perlman, Oscar Peterson 音声音世原抓CD - Side By Side.wav

     峰值电平 90.0 %
     抓取速度 1.9 X
     范围质量 100.0 %
     复制 CRC B57E0594
     复制成功

没有错误发生


AccurateRip 摘要

音轨  1  精确地校准抓取  34)  [13518A57]  (AR v2)
音轨  2  精确地校准抓取  35)  [5E452FE5]  (AR v2)
音轨  3  精确地校准抓取  35)  [AA550D34]  (AR v2)
音轨  4  精确地校准抓取  36)  [C8721D71]  (AR v2)
音轨  5  精确地校准抓取  35)  [5F594316]  (AR v2)
音轨  6  精确地校准抓取  35)  [54503B9B]  (AR v2)
音轨  7  精确地校准抓取  34)  [4084C788]  (AR v2)
音轨  8  精确地校准抓取  35)  [83FCFA71]  (AR v2)
音轨  9  精确地校准抓取  35)  [9BF39CA1]  (AR v2)
音轨 10  精确地校准抓取  35)  [E2E95A2A]  (AR v2)
音轨 11  精确地校准抓取  35)  [F69769A7]  (AR v2)
音轨 12  精确地校准抓取  34)  [591CA9BB]  (AR v2)

所有音轨精确校准抓取

状态报告结尾

---- CUETools DB Plugin V2.1.3

[CTDB TOCID: vormSdKTDfwyrVDKhdAIoo.uu4c-] found, Submit result: vormSdKTDfwyrVDKhdAIoo.uu4c- has been confirmed
[bc7a1826] (84/91) Accurately ripped
[1efde7f0] (01/91) No match
[2611e91b] (01/91) No match
[8acec59d] (01/91) No match
[138739a2] (01/91) No match
[5521ac45] (01/91) No match
[731ec6ac] (01/91) No match
[e8f8eafc] (01/91) No match



此资源供爱好音乐的朋友交流,请您于下载二十四小时后删除。
如您喜欢本资源,请购买正版CD,切勿用于商业目的。

评分

参与人数 1威望 +1 金钱 +100 收起 理由
天下太平 + 1 + 100 赞一个!

查看全部评分

微信号17502199718   
发烧音响CD群40361905(不定期上传本人原版CD抓轨WAV)
回复

使用道具 举报

0

主题

132

帖子

0

威望

新手上路

Rank: 1

交易诚信度
0
注册时间
2010-10-24
发表于 2016-4-30 14:31 | 显示全部楼层
谢谢分享
回复

使用道具 举报

1

主题

272

帖子

0

威望

新手上路

Rank: 1

交易诚信度
0
注册时间
2014-11-1
发表于 2016-4-30 19:42 | 显示全部楼层
不错谢谢分享
回复

使用道具 举报

12

主题

186

帖子

0

威望

新手上路

Rank: 1

交易诚信度
0
注册时间
2010-4-1
发表于 2016-4-30 20:21 | 显示全部楼层
楼主发的碟音质都非常好 都是精品
回复

使用道具 举报

2

主题

364

帖子

1

威望

初级会员

Rank: 2Rank: 2

交易诚信度
0
注册时间
2013-6-12
发表于 2016-4-30 20:32 | 显示全部楼层
谢谢楼主的分享
回复

使用道具 举报

1

主题

92

帖子

0

威望

新手上路

Rank: 1

交易诚信度
0
注册时间
2013-4-9
发表于 2016-4-30 21:55 | 显示全部楼层
谢谢分享,音声音世都是精品。
回复

使用道具 举报

0

主题

83

帖子

0

威望

新手上路

Rank: 1

交易诚信度
0
注册时间
2008-7-20
发表于 2016-5-1 00:10 | 显示全部楼层
爵士乐精品,多谢楼主分享!
回复

使用道具 举报

0

主题

212

帖子

0

威望

新手上路

Rank: 1

交易诚信度
0
注册时间
2008-2-18
发表于 2016-5-1 00:17 | 显示全部楼层
一个古典小提琴大师一个爵士大师看看能檫出怎么样的火花
回复

使用道具 举报

1

主题

76

帖子

1

威望

初级会员

Rank: 2Rank: 2

交易诚信度
0
注册时间
2013-11-7
发表于 2016-5-1 11:12 | 显示全部楼层
楼主发的碟音质都非常好 都是精品
回复

使用道具 举报

0

主题

387

帖子

0

威望

新手上路

Rank: 1

交易诚信度
0
注册时间
2011-3-6
发表于 2016-5-1 12:59 | 显示全部楼层
谢谢分享精品音乐。五一快乐。
回复

使用道具 举报

0

主题

230

帖子

0

威望

新手上路

Rank: 1

交易诚信度
0
注册时间
2015-4-25
发表于 2016-5-1 13:25 | 显示全部楼层
帕尔曼和奥斯卡彼德森,奇妙的组合
回复

使用道具 举报

5

主题

604

帖子

0

威望

初级会员

Rank: 2Rank: 2

交易诚信度
2
注册时间
2009-9-3
发表于 2016-5-1 16:12 | 显示全部楼层
谢谢分享
回复

使用道具 举报

0

主题

4

帖子

0

威望

新手上路

Rank: 1

交易诚信度
0
注册时间
2016-2-14
发表于 2016-5-1 16:22 | 显示全部楼层
十分感谢楼主分享
回复

使用道具 举报

19

主题

292

帖子

0

威望

新手上路

Rank: 1

交易诚信度
0
注册时间
2015-6-15
发表于 2016-5-1 19:36 | 显示全部楼层
谢谢分享,楼主辛苦了
回复

使用道具 举报

3

主题

725

帖子

107

威望

超级会员

Rank: 6Rank: 6Rank: 6Rank: 6Rank: 6Rank: 6

极品音响特约嘉宾

交易诚信度
0
注册时间
2003-1-10
发表于 2016-5-1 22:40 | 显示全部楼层
本帖最后由 amati 于 2016-5-1 23:04 编辑

1.9x 赞楼主,辛苦了!
在听着,很舒服。
帕尔曼 拉jazz少见,telarc的录音都非常出色。
回复

使用道具 举报

您需要登录后才可以回帖 登录 | 注册

本版积分规则

小黑屋|Archiver|手机版|客服热线:010-68636033 QQ群:194098586|广告合作|家电联盟网 ( 京公网安备11010702000821 京ICP证041102号,京ICP备09075138号-3

GMT+8, 2018-12-15 01:17 , Processed in 0.218776 second(s), 43 queries , Gzip On, Memcache On.

Powered by Discuz! X3.2 Licensed

© 2001-2013 Comsenz Inc.