请选择 进入手机版 | 继续访问电脑版
广告招商

[古典/交响乐/New Age] 迪卡西德首版半银圈郑京和 -《德彪西、弗兰克的小提琴奏鸣曲》(WAV/百度)

查看: 9621|回复: 197

425

主题

5654

帖子

366

威望

版主

Rank: 10

积极参与奖

交易诚信度
8
注册时间
2007-12-31
QQ
发表于 2016-4-30 14:19 | 显示全部楼层 |阅读模式

马上注册 家电论坛,众多有奖活动等你来参与!

您需要 登录 才可以下载或查看,没有帐号?注册

x
迪卡西德首版半银圈Kyung Wha Chung 郑京和 -《德彪西、弗兰克的小提琴奏鸣曲》(WAV/百度)




本人所发的每一个帖子都是本人亲自用正版CD原抓,音质绝对保证


游客,如果您要查看本帖隐藏内容请回复




收录了德彪西、弗兰克的小提琴奏鸣曲以及拉威尔的七重奏——即竖琴、长笛、单簧管和弦乐四重奏的“引子与快板”,唱片上另有一首德彪西的长笛、中提琴和竖琴奏鸣曲,都是些很内秀的曲子,出色的演奏和音质使此片被企鹅评为三星带花。

专辑曲目:
01. Franck: Sonate en la mineur pour violon avec piano FWV 8 - I. Allegretto ben moderato [0:05:56.13]
02. Franck: Sonate en la mineur pour violon avec piano FWV 8 - II. Allegro [0:08:07.62]
03. Franck: Sonate en la mineur pour violon avec piano FWV 8 - III. Recitativo - Fantasia [0:07:04.13]
04. Franck: Sonate en la mineur pour violon avec piano FWV 8 - IV. Allegretto poco mosso [0:06:24.62]
05. Debussy: Sonate pour violon et piano L.140 - I. Allegro vivo [0:04:47.25]
06. Debussy: Sonate pour violon et piano L.140 - II. Intermede. Fantasque[0:04:08.00]
07. Debussy: Sonate pour violon et piano L.140 - III. Finale[0:04:26.50]
08. Ravel: Introduction et Allegro [0:10:32.25]
09. Debussy: Sonate en trio pour, alto et harpe L.137 - I. Pastorale [0:06:01.13]
10. Debussy: Sonate en trio pour, alto et harpe L.137 - II. Interlude [0:05:06.37]
11. Debussy: Sonate en trio pour, alto et harpe L.137 - III. Finale [0:04:25.13]


DSC03812.JPG DSC03813.JPG DSC03814.JPG DSC03815.JPG DSC03816.JPG

Exact Audio Copy V1.0 beta 3 from 29. August 2011

EAC 抓取日志文件从29. 四月 2016, 17:14

Various Artists音声音世原抓CD / Franck, Debussy & Ravel

使用驱动器  :PIONEER DVD-ROM DVD-232   Adapter: 1  ID: 1

读取模式      : 可靠Secure
使用精确流     : 是
清空音频缓存    : 是
使用 C2 指示器 : 否

读取偏移校正:               : 6
读取 Lead-In 和 Lead-Out : 否
用静音填充抓取中丢失偏移的采样       : 是
去除首尾静音块               : 否
在CRC 计算中使用了空样本       : 是
已用接口                  : Win NT 及 2000 本地 Win32 接口

所用输出模式: : 内部 WAV 函数
样本格式    : 44.100 Hz; 16 Bit; 立体声


已抓取 CD 的 TOC

     音轨 |    起始    |    长度    |  起始扇区  |  结束扇区  
    --------------------------------------------
      1 |  0:00.32 |  5:56.13 |     32 |  26744
      2 |  5:56.45 |  8:07.62 |  26745 |  63331
      3 | 14:04.32 |  7:04.13 |  63332 |  95144
      4 | 21:08.45 |  6:24.62 |  95145 | 124006
      5 | 27:33.32 |  4:47.25 | 124007 | 145556
      6 | 32:20.57 |  4:08.00 | 145557 | 164156
      7 | 36:28.57 |  4:26.50 | 164157 | 184156
      8 | 40:55.32 | 10:32.25 | 184157 | 231581
      9 | 51:27.57 |  6:01.13 | 231582 | 258669
     10 | 57:28.70 |  5:06.37 | 258670 | 281656
     11 | 62:35.32 |  4:25.13 | 281657 | 301544


范围状态及错误

已选择范围

     文件名 F:\音乐\Various Artists音声音世原抓CD - Franck, Debussy & Ravel\Various Artists音声音世原抓CD - Franck, Debussy & Ravel.wav

     峰值电平 75.0 %
     抓取速度 7.6 X
     范围质量 100.0 %
     复制 CRC C51C733E
     复制成功

没有错误发生


AccurateRip 摘要

音轨  1  精确地校准抓取  4)  [FA3115AD]  (AR v2)
音轨  2  精确地校准抓取  4)  [585EC388]  (AR v2)
音轨  3  精确地校准抓取  4)  [2A623AE3]  (AR v2)
音轨  4  精确地校准抓取  4)  [B1328841]  (AR v2)
音轨  5  精确地校准抓取  4)  [8293745F]  (AR v2)
音轨  6  精确地校准抓取  4)  [E35101C1]  (AR v2)
音轨  7  精确地校准抓取  4)  [5D17F065]  (AR v2)
音轨  8  精确地校准抓取  4)  [0B06D319]  (AR v2)
音轨  9  精确地校准抓取  4)  [BD289A77]  (AR v2)
音轨 10  精确地校准抓取  4)  [BC3F9985]  (AR v2)
音轨 11  精确地校准抓取  4)  [A38C77AC]  (AR v2)

所有音轨精确校准抓取

状态报告结尾

---- CUETools DB Plugin V2.1.3

[CTDB TOCID: Q5Bk6ysmGzCFXTChZ4bESR8Cos0-] found, Submit result: discs with pregaps not supported in this protocol version
[4e4d304a] (51/51) Differs in 0 samples @
You can use CUETools to repair this rip.




此资源供爱好音乐的朋友交流,请您于下载二十四小时后删除。
如您喜欢本资源,请购买正版CD,切勿用于商业目的。

评分

参与人数 1威望 +1 金钱 +100 收起 理由
天下太平 + 1 + 100 赞一个!

查看全部评分

微信号17502199718   
发烧音响CD群40361905(不定期上传本人原版CD抓轨WAV)
回复

使用道具 举报

0

主题

129

帖子

0

威望

新手上路

Rank: 1

交易诚信度
0
注册时间
2010-10-24
发表于 2016-4-30 14:30 | 显示全部楼层
谢谢分享
回复 支持 反对

使用道具 举报

1

主题

272

帖子

0

威望

新手上路

Rank: 1

交易诚信度
0
注册时间
2014-11-1
发表于 2016-4-30 19:40 | 显示全部楼层
不错好碟!谢谢分享
回复 支持 反对

使用道具 举报

2

主题

361

帖子

1

威望

初级会员

Rank: 2Rank: 2

交易诚信度
0
注册时间
2013-6-12
发表于 2016-4-30 20:35 | 显示全部楼层
谢谢楼主的分享
回复 支持 反对

使用道具 举报

0

主题

81

帖子

0

威望

新手上路

Rank: 1

交易诚信度
0
注册时间
2008-7-20
发表于 2016-5-1 00:08 | 显示全部楼层
法国室内乐的精品,多谢分享!
回复 支持 反对

使用道具 举报

0

主题

197

帖子

0

威望

新手上路

Rank: 1

交易诚信度
0
注册时间
2008-2-18
发表于 2016-5-1 00:19 | 显示全部楼层
听过郑京和拉的布鲁赫和门德尔松,很优美
回复 支持 反对

使用道具 举报

1

主题

74

帖子

1

威望

初级会员

Rank: 2Rank: 2

交易诚信度
0
注册时间
2013-11-7
发表于 2016-5-1 11:03 | 显示全部楼层
正版CD原抓,音质绝对保证
回复 支持 反对

使用道具 举报

0

主题

219

帖子

0

威望

新手上路

Rank: 1

交易诚信度
0
注册时间
2015-4-25
发表于 2016-5-1 11:11 | 显示全部楼层
啥也不说了,经典名盘
回复 支持 反对

使用道具 举报

0

主题

42

帖子

0

威望

新手上路

Rank: 1

交易诚信度
0
注册时间
2014-10-17
发表于 2016-5-1 12:09 | 显示全部楼层
经典唱片,谢谢分享!
回复 支持 反对

使用道具 举报

0

主题

369

帖子

0

威望

新手上路

Rank: 1

交易诚信度
0
注册时间
2011-3-6
发表于 2016-5-1 12:50 | 显示全部楼层
谢谢版主分享经典音乐,五一快乐。
回复 支持 反对

使用道具 举报

3

主题

724

帖子

107

威望

超级会员

Rank: 6Rank: 6Rank: 6Rank: 6Rank: 6Rank: 6

极品音响特约嘉宾

交易诚信度
0
注册时间
2003-1-10
发表于 2016-5-1 15:14 | 显示全部楼层
建议楼主降低抓取速度!4x内会更好声的。
回复 支持 反对

使用道具 举报

5

主题

604

帖子

0

威望

初级会员

Rank: 2Rank: 2

交易诚信度
2
注册时间
2009-9-3
发表于 2016-5-1 16:20 | 显示全部楼层
谢谢分享!
回复 支持 反对

使用道具 举报

19

主题

292

帖子

0

威望

新手上路

Rank: 1

交易诚信度
0
注册时间
2015-6-15
发表于 2016-5-1 19:37 | 显示全部楼层
谢谢分享,辛苦了!
回复 支持 反对

使用道具 举报

0

主题

498

帖子

25

威望

高级会员

Rank: 4Rank: 4Rank: 4Rank: 4

交易诚信度
0
注册时间
2003-3-30
发表于 2016-5-2 07:48 | 显示全部楼层
感谢楼主分享!
音乐与爱 不舍情怀
回复 支持 反对

使用道具 举报

2

主题

340

帖子

0

威望

初级会员

Rank: 2Rank: 2

交易诚信度
0
注册时间
2012-11-26
发表于 2016-5-2 08:39 | 显示全部楼层
谢谢版主分享的精典好碟下载收藏!
回复 支持 反对

使用道具 举报

您需要登录后才可以回帖 登录 | 注册

本版积分规则

小黑屋|Archiver|手机版|客服热线:010-68636033|广告合作|家电联盟网 ( 京公网安备11010702000821 京ICP证041102号,京ICP备09075138号-3

GMT+8, 2018-7-22 06:59 , Processed in 0.172193 second(s), 45 queries , Gzip On, Memcache On.

Powered by Discuz! X3.2 Licensed

© 2001-2013 Comsenz Inc.