请选择 进入手机版 | 继续访问电脑版
广告招商

[流行/摇滚/乡村] 蔡国权-投向未来(88年韩国T113-01胶圈版)[追梦者原创][WAV/百度]

查看: 8595|回复: 160

38

主题

204

帖子

48

威望

高级会员

Rank: 4Rank: 4Rank: 4Rank: 4

交易诚信度
0
注册时间
2014-3-9
发表于 2016-3-17 12:36 | 显示全部楼层 |阅读模式

马上注册 家电论坛,众多有奖活动等你来参与!

您需要 登录 才可以下载或查看,没有帐号?注册

x
封面_眸目压缩.jpg 碟面_眸目压缩.jpg 封底1_眸目压缩.jpg 封面1_眸目压缩.jpg 内页1_眸目压缩.jpg 内页2_眸目压缩.jpg 内页3_眸目压缩.jpg

专辑名称:投向未来
专辑歌手:蔡国权
发行时间:1988-01-01
发行地区: 香港
专辑语言:粤语
唱片公司:宝丽金
曲目数量:10
专辑版本:韩国T113版
内圈码:836 090-2 T113-4062 01
资源格式:WAV+CUE+LOG+600dpi高清套图
上传方式:百度网盘


专辑曲目:

01.最后的一班渡轮  
02.冲破万重浪  
03.天地情
04.创作我的歌  
05.零散骤雨
06.只有你
07.荒凉的街角
08.投向未来
09.叹息桥
10.一走了之





音频链接:
游客,如果您要查看本帖隐藏内容请回复



声明:本人原抓作品禁止:转帖.打包转发传播.刻录销售.转卖资源等商业行为。
仅供个人交流试听之用, 请下载于24小时后删除,版权归原唱片公司所有,谢谢合作!
更多原抓资源可加关注本人QQ:467183678(备注来处)

评分

参与人数 1威望 +1 金钱 +100 收起 理由
天下太平 + 1 + 100 赞一个!

查看全部评分

资源失效的请直接联系我QQ/微信:467183678
回复

使用道具 举报

38

主题

204

帖子

48

威望

高级会员

Rank: 4Rank: 4Rank: 4Rank: 4

交易诚信度
0
注册时间
2014-3-9
 楼主| 发表于 2016-3-17 12:36 | 显示全部楼层
Exact Audio Copy V1.1 from 23. June 2015

EAC 抓取日志文件从17. 十二月 2015, 8:45

蔡國權 / 投向未來

使用驱动器  :TEAC    CD-W540E   Adapter: 0  ID: 0

读取模式      : 可靠Secure
使用精确流     : 是
清空音频缓存    : 是
使用 C2 指示器 : 否

读取偏移校正:               : 686
读取 Lead-In 和 Lead-Out : 否
用静音填充抓取中丢失偏移的采样       : 是
去除首尾静音块               : 否
在CRC 计算中使用了空样本       : 是
已用接口                  : 已安装外部 ASPI 接口

所用输出模式: : 内部 WAV 函数
样本格式    : 44.100 Hz; 16 Bit; 立体声


已抓取 CD 的 TOC

     音轨 |    起始    |    长度    |  起始扇区  |  结束扇区  
    --------------------------------------------
      1 |  0:00.33 |  4:09.12 |     33 |  18719
      2 |  4:09.45 |  3:34.05 |  18720 |  34774
      3 |  7:43.50 |  4:56.48 |  34775 |  57022
      4 | 12:40.23 |  4:24.72 |  57023 |  76894
      5 | 17:05.20 |  4:47.58 |  76895 |  98477
      6 | 21:53.03 |  4:32.60 |  98478 | 118937
      7 | 26:25.63 |  4:54.15 | 118938 | 141002
      8 | 31:20.03 |  4:06.72 | 141003 | 159524
      9 | 35:27.00 |  3:31.60 | 159525 | 175409
     10 | 38:58.60 |  3:43.48 | 175410 | 192182


范围状态及错误

已选择范围

     文件名 D:\追梦者原抓\蔡国权-投向未来(88年韩国T113-01胶圈版)[追梦者原创]\蔡国权-投向未来(88年韩国T113-01胶圈版)[追梦者原创].wav

     峰值电平 100.0 %
     抓取速度 1.2 X
     范围质量 100.0 %
     复制 CRC 8206FE69
     复制成功

没有错误发生


AccurateRip 摘要

音轨  1  不能准确地校验 (确认 1)  [CD418CAC], 返回 AccurateRip [9891526A]  (AR v2)
音轨  2  不能准确地校验 (确认 1)  [F70CA239], 返回 AccurateRip [00242E7D]  (AR v2)
音轨  3  不能准确地校验 (确认 1)  [7E1A3DF7], 返回 AccurateRip [A1BB60AF]  (AR v2)
音轨  4  不能准确地校验 (确认 1)  [024B1931], 返回 AccurateRip [F942562E]  (AR v2)
音轨  5  不能准确地校验 (确认 1)  [93513BC5], 返回 AccurateRip [57BE6430]  (AR v2)
音轨  6  不能准确地校验 (确认 1)  [647EBF89], 返回 AccurateRip [3334412C]  (AR v2)
音轨  7  不能准确地校验 (确认 1)  [69E55A83], 返回 AccurateRip [3753E9A1]  (AR v2)
音轨  8  不能准确地校验 (确认 1)  [20FF7DAD], 返回 AccurateRip [4839643D]  (AR v2)
音轨  9  不能准确地校验 (确认 1)  [1B42B905], 返回 AccurateRip [8F92C6A0]  (AR v2)
音轨 10  不能准确地校验 (确认 1)  [FB569088], 返回 AccurateRip [C9039BDA]  (AR v2)

没有音轨被准确核实
你的版本可能与数据库的版本不同

状态报告结尾

---- CUETools DB Plugin V2.1.6

[CTDB TOCID: vw4o3A6ymNYORVHHHmXG7JloEBI-] found
Submit result: vw4o3A6ymNYORVHHHmXG7JloEBI- has been confirmed
Track | CTDB Status
  1   | (2/2) Accurately ripped
  2   | (2/2) Accurately ripped
  3   | (2/2) Accurately ripped
  4   | (2/2) Accurately ripped
  5   | (2/2) Accurately ripped
  6   | (2/2) Accurately ripped
  7   | (2/2) Accurately ripped
  8   | (2/2) Accurately ripped
  9   | (2/2) Accurately ripped
10   | (2/2) Accurately ripped


==== 记录校验日志 68CB0F250255100FB10181BEA44963DEDB33A239198B6BB36708807D4162FCCD ====
资源失效的请直接联系我QQ/微信:467183678
回复 支持 反对

使用道具 举报

18

主题

6972

帖子

46

威望

特级会员

Rank: 5Rank: 5Rank: 5Rank: 5Rank: 5

交易诚信度
1
注册时间
2006-4-10
发表于 2016-3-17 13:36 | 显示全部楼层
这张CD我曾经有,不过是盗版的,哈哈。谢谢发布。
投影机:奥图码HD37+120寸 功放:马兰士sR7010+AB600后级(中置)+力之霸后级(前置)+爱威CAE902后级(炮) 7.2.4 音箱:中道书架(前环天空)惠威杜希(双中置) DIY15寸转输线式对地增压低音炮+复刻百里登SUB1。
回复 支持 反对

使用道具 举报

55

主题

438

帖子

16

威望

中级会员

Rank: 3Rank: 3Rank: 3

交易诚信度
0
注册时间
2010-12-2
发表于 2016-3-17 14:38 | 显示全部楼层
谢谢分享。请问下解压密码怎么不提供?谢谢
回复 支持 反对

使用道具 举报

3

主题

473

帖子

1

威望

初级会员

Rank: 2Rank: 2

交易诚信度
0
注册时间
2012-9-3
发表于 2016-3-17 15:49 | 显示全部楼层
.最后的一班渡轮 这首歌当年很是喜欢,谢谢楼主能让我重温。
回复 支持 反对

使用道具 举报

0

主题

1

帖子

0

威望

新手上路

Rank: 1

交易诚信度
0
注册时间
2016-3-6
发表于 2016-3-17 17:23 | 显示全部楼层
好听
回复 支持 反对

使用道具 举报

0

主题

11

帖子

0

威望

新手上路

Rank: 1

交易诚信度
0
注册时间
2016-3-8
发表于 2016-3-17 18:15 | 显示全部楼层
谢谢楼主能让我重温。
回复 支持 反对

使用道具 举报

0

主题

281

帖子

0

威望

新手上路

Rank: 1

交易诚信度
0
注册时间
2012-6-26
发表于 2016-3-17 18:18 | 显示全部楼层
谢谢分享蔡国权精选!
回复 支持 反对

使用道具 举报

1

主题

265

帖子

0

威望

新手上路

Rank: 1

交易诚信度
0
注册时间
2014-11-1
发表于 2016-3-17 19:50 | 显示全部楼层
不错
回复 支持 反对

使用道具 举报

2

主题

2076

帖子

0

威望

初级会员

Rank: 2Rank: 2

交易诚信度
0
注册时间
2008-9-23
发表于 2016-3-17 20:26 | 显示全部楼层
谢谢分享!

做豆腐--做硬了是豆腐干 做稀了是豆腐脑 做薄了是豆腐皮 做没了是豆浆 放臭了是臭豆腐
回复 支持 反对

使用道具 举报

0

主题

88

帖子

0

威望

新手上路

Rank: 1

交易诚信度
0
注册时间
2014-10-25
发表于 2016-3-17 20:48 | 显示全部楼层
谢谢楼主分享!
回复 支持 反对

使用道具 举报

38

主题

204

帖子

48

威望

高级会员

Rank: 4Rank: 4Rank: 4Rank: 4

交易诚信度
0
注册时间
2014-3-9
 楼主| 发表于 2016-3-18 11:27 | 显示全部楼层

你还没加我QQ啊,我QQ空间还有资源的,
资源失效的请直接联系我QQ/微信:467183678
回复 支持 反对

使用道具 举报

38

主题

204

帖子

48

威望

高级会员

Rank: 4Rank: 4Rank: 4Rank: 4

交易诚信度
0
注册时间
2014-3-9
 楼主| 发表于 2016-3-18 11:27 | 显示全部楼层
lujacn 发表于 2016-3-17 18:18
谢谢分享蔡国权精选!

这张是专辑不是精选哦
资源失效的请直接联系我QQ/微信:467183678
回复 支持 反对

使用道具 举报

0

主题

129

帖子

0

威望

新手上路

Rank: 1

交易诚信度
0
注册时间
2010-10-24
发表于 2016-3-18 13:01 | 显示全部楼层
选曲好听
回复 支持 反对

使用道具 举报

0

主题

31

帖子

0

威望

新手上路

Rank: 1

交易诚信度
0
注册时间
2016-3-18
发表于 2016-3-18 13:37 | 显示全部楼层
如果您要查看本帖隐藏内容请回复
回复 支持 反对

使用道具 举报

您需要登录后才可以回帖 登录 | 注册

本版积分规则

小黑屋|Archiver|手机版|网站热线:010-68636033 账号问题加QQ群:194098586|广告合作|家电联盟网 ( 京公网安备11010702000821 京ICP证041102号,京ICP备09075138号-3

GMT+8, 2018-1-19 01:35 , Processed in 0.178164 second(s), 47 queries , Gzip On, Memcache On.

Powered by Discuz! X3.2

© 2001-2013 Comsenz Inc.