请选择 进入手机版 | 继续访问电脑版
广告招商

[流行/摇滚/乡村] 经典中的经典 中国摇滚第1代经典作品(WAV/百度)

查看: 17699|回复: 305

430

主题

5681

帖子

366

威望

版主

Rank: 10

积极参与奖

交易诚信度
8
注册时间
2007-12-31
QQ
发表于 2015-11-1 23:39 | 显示全部楼层 |阅读模式

马上注册 家电论坛,众多有奖活动等你来参与!

您需要 登录 才可以下载或查看,没有帐号?注册

x
经典中的经典  中国摇滚第1代经典作品(WAV/百度)





本人所发的每一个帖子都是本人亲自用正版CD原抓的,音质绝对保证


游客,如果您要查看本帖隐藏内容请回复




解压密码:2015/10/30


中国摇滚第1代经典作品  中国摇滚代表作品一网打尽


DSC02316.JPG DSC02317.JPG DSC02318.JPG DSC02319.JPG DSC02320.JPG



Exact Audio Copy V1.0 beta 6 from 9. April 2015

EAC 抓取日志文件从7. 十月 2015, 17:13

Various 音声音世原抓CD / 中国摇滚第1代经典作品

使用驱动器  :PIONEER DVD-ROM DVD-232   Adapter: 1  ID: 0

读取模式      : 可靠Secure
使用精确流     : 是
清空音频缓存    : 是
使用 C2 指示器 : 否

读取偏移校正:               : 6
读取 Lead-In 和 Lead-Out : 否
用静音填充抓取中丢失偏移的采样       : 是
去除首尾静音块               : 否
在CRC 计算中使用了空样本       : 是
已用接口                  : Win NT 及 2000 本地 Win32 接口

所用输出模式: : 内部 WAV 函数
样本格式    : 44.100 Hz; 16 Bit; 立体声


已抓取 CD 的 TOC

     音轨 |    起始    |    长度    |  起始扇区  |  结束扇区  
    --------------------------------------------
      1 |  0:00.00 |  5:31.00 |      0 |  24824
      2 |  5:31.00 |  5:25.72 |  24825 |  49271
      3 | 10:56.72 |  5:35.73 |  49272 |  74469
      4 | 16:32.70 |  7:04.17 |  74470 | 106286
      5 | 23:37.12 |  5:09.05 | 106287 | 129466
      6 | 28:46.17 |  5:25.20 | 129467 | 153861
      7 | 34:11.37 |  4:05.63 | 153862 | 172299
      8 | 38:17.25 |  4:23.37 | 172300 | 192061
      9 | 42:40.62 |  3:49.13 | 192062 | 209249
     10 | 46:30.00 |  3:31.10 | 209250 | 225084
     11 | 50:01.10 |  4:49.07 | 225085 | 246766
     12 | 54:50.17 |  5:07.43 | 246767 | 269834
     13 | 59:57.60 |  4:53.17 | 269835 | 291826
     14 | 64:51.02 |  4:36.00 | 291827 | 312526


范围状态及错误

已选择范围

     文件名 G:\音乐\新建文件夹 (2)\Various 音声音世原抓CD - 中国摇滚第1代经典作品\Various 音声音世原抓CD - 中国摇滚第1代经典作品.wav

     峰值电平 100.0 %
     抓取速度 4.2 X
     范围质量 100.0 %
     复制 CRC D4BEFE17
     复制成功

没有错误发生


AccurateRip 摘要

音轨  1  在数据库中不存在
音轨  2  在数据库中不存在
音轨  3  在数据库中不存在
音轨  4  在数据库中不存在
音轨  5  在数据库中不存在
音轨  6  在数据库中不存在
音轨  7  在数据库中不存在
音轨  8  在数据库中不存在
音轨  9  在数据库中不存在
音轨 10  在数据库中不存在
音轨 11  在数据库中不存在
音轨 12  在数据库中不存在
音轨 13  在数据库中不存在
音轨 14  在数据库中不存在

没有任何音轨在 AccurateRip 数据库中有记录

状态报告结尾

---- CUETools DB Plugin V2.1.6

[CTDB TOCID: A4rfZm8MKzBU0hYj2ilPLioGV5w-] disk not present in database
Submit result: A4rfZm8MKzBU0hYj2ilPLioGV5w- has been uploaded






此资源供爱好音乐的朋友交流,请您于下载二十四小时后删除。
如您喜欢本资源,请购买正版CD,切勿用于商业目的。

评分

参与人数 1威望 +1 金钱 +100 收起 理由
天下太平 + 1 + 100

查看全部评分

微信号17502199718   
发烧音响CD群40361905(不定期上传本人原版CD抓轨WAV)
回复

使用道具 举报

1

主题

237

帖子

0

威望

初级会员

Rank: 2Rank: 2

交易诚信度
0
注册时间
2007-5-17
发表于 2015-11-2 09:05 | 显示全部楼层
真熟悉啊,感谢分享!
回复

使用道具 举报

94

主题

5144

帖子

35

威望

禁止访问

交易诚信度
15
注册时间
2001-11-21
QQ
发表于 2015-11-2 15:26 | 显示全部楼层
提示: 作者被禁止或删除 内容自动屏蔽
回复

使用道具 举报

0

主题

88

帖子

0

威望

新手上路

Rank: 1

交易诚信度
0
注册时间
2011-7-27
发表于 2015-11-2 16:02 | 显示全部楼层
谢谢楼主分享
回复

使用道具 举报

0

主题

38

帖子

0

威望

新手上路

Rank: 1

交易诚信度
0
注册时间
2008-5-29
发表于 2015-11-2 23:00 | 显示全部楼层
相对牛叉
回复

使用道具 举报

25

主题

178

帖子

6

威望

中级会员

Rank: 3Rank: 3Rank: 3

交易诚信度
0
注册时间
2015-10-20
发表于 2015-11-3 09:24 | 显示全部楼层
我来听听
回复

使用道具 举报

0

主题

47

帖子

0

威望

新手上路

Rank: 1

交易诚信度
0
注册时间
2012-7-30
发表于 2015-11-3 16:40 来自家电论坛网手机触屏版 | 显示全部楼层
这张中国有,不错,收下欣赏
回复

使用道具 举报

0

主题

18

帖子

0

威望

新手上路

Rank: 1

交易诚信度
0
注册时间
2015-11-3
发表于 2015-11-3 21:38 | 显示全部楼层
Hao!
回复

使用道具 举报

6

主题

661

帖子

0

威望

初级会员

Rank: 2Rank: 2

交易诚信度
0
注册时间
2004-10-15
发表于 2015-11-3 22:16 | 显示全部楼层
唉,知道又是不存在了。
回复

使用道具 举报

5

主题

215

帖子

0

威望

新手上路

Rank: 1

交易诚信度
0
注册时间
2015-2-11
发表于 2015-11-4 21:14 | 显示全部楼层
谢谢分享
回复

使用道具 举报

1

主题

284

帖子

0

威望

新手上路

Rank: 1

交易诚信度
0
注册时间
2012-5-7
发表于 2015-11-5 13:51 | 显示全部楼层
很经典的摇滚,谢谢分享
回复

使用道具 举报

20

主题

311

帖子

0

威望

新手上路

Rank: 1

交易诚信度
0
注册时间
2011-1-15
发表于 2015-11-5 14:24 | 显示全部楼层
1111111111111
回复

使用道具 举报

20

主题

311

帖子

0

威望

新手上路

Rank: 1

交易诚信度
0
注册时间
2011-1-15
发表于 2015-11-5 14:24 | 显示全部楼层
1111111111111
回复

使用道具 举报

1

主题

101

帖子

0

威望

新手上路

Rank: 1

交易诚信度
0
注册时间
2015-3-27
发表于 2015-11-5 16:18 | 显示全部楼层
谢谢了
回复

使用道具 举报

11

主题

1072

帖子

21

威望

高级会员

Rank: 4Rank: 4Rank: 4Rank: 4

交易诚信度
8
注册时间
2004-12-8
QQ
发表于 2015-11-5 18:48 | 显示全部楼层
尝试听听看吧
回复

使用道具 举报

您需要登录后才可以回帖 登录 | 注册

本版积分规则

关闭

今日推荐上一条 /1 下一条

小黑屋|Archiver|手机版|客服热线:010-68636033 QQ群:194098586|广告合作|家电联盟网 ( 京公网安备11010702000821 京ICP证041102号,京ICP备09075138号-3

GMT+8, 2018-10-24 07:00 , Processed in 0.229765 second(s), 46 queries , Gzip On, Memcache On.

Powered by Discuz! X3.2 Licensed

© 2001-2013 Comsenz Inc.