请选择 进入手机版 | 继续访问电脑版
广告招商

[古典/交响乐/New Age] 日本东芝首版香港雨果发烧碟1 2,忠告:请先用较安全音量欣赏,以免烧机(WAV/百度)

查看: 37457|回复: 805

417

主题

5610

帖子

366

威望

版主

Rank: 10

积极参与奖

交易诚信度
8
注册时间
2007-12-31
QQ
发表于 2015-3-28 00:26 | 显示全部楼层 |阅读模式

马上注册 家电论坛,众多有奖活动等你来参与!

您需要 登录 才可以下载或查看,没有帐号?注册

x
日本东芝首版香港雨果发烧碟1 2,忠告:请先用较安全音量欣赏,以免烧机(WAV/百度)


本人所发的每一个帖子都是本人亲自用正版CD原抓的,音质绝对保证


游客,如果您要查看本帖隐藏内容请回复





解压密码:2015/3/27





雨果发烧碟是音乐家、指挥家、著名录音师、新加坡籍华人易有伍先生创建的香港雨果唱片公司矢志记录中国音乐家的艺术精品,并且讲究录音品质。该公司经常会将一些近期发行的优秀录音汇总起来,以“发烧碟”的名义推出精选CD,以飨音响爱好者。
雨果发烧碟1

01.夜深沉
02.《小刀会》序曲
03.懒画眉
04.十面埋伏
05.渔歌
06.鸥鹭忘机
07.秋水龙吟
08.山东大鼓
09.古筝断弦效果
10.《潮音》第四段
11.《云南回忆》中阮协奏曲第三乐章结尾
12.天涯歌女
13.海顿C大调小提琴协奏曲第三乐章
14.《黄河》钢琴协奏曲第一乐章
15.《梁祝》小提琴协奏曲(选段)
16.《图画展览会》之基辅大门]
17-45.25Hz-20KHz测试讯号
雨果发烧碟2

01.丰收锣鼓
02.姑苏行
03.对花
04.丝路驼铃
05.鸭子拌咀
06.禅院钟声
07.摘海棠
08.颂歌
09.渔舟唱晚
10.<黄河>钢琴协奏曲第三乐章
11.1812序曲(选段)
12.远去的孩子
13-18.话筒应用效果


DSC09256.JPG DSC09257.JPG DSC09259.JPG DSC09260.JPG DSC09261.JPG DSC09262.JPG DSC09263.JPG DSC09264.JPG DSC09265.JPG DSC09266.JPG DSC09267.JPG DSC09268.JPG


Exact Audio Copy V1.0 beta 3 from 29. August 2011

EAC 抓取日志文件从27. 三月 2015, 18:08

Various Artists 音声音世原抓CD / HUGO雨果发烧碟(一)

使用驱动器  :PIONEER DVD-ROM DVD-232   Adapter: 2  ID: 0

读取模式      : 可靠Secure
使用精确流     : 是
清空音频缓存    : 是
使用 C2 指示器 : 否

读取偏移校正:               : 6
读取 Lead-In 和 Lead-Out : 否
用静音填充抓取中丢失偏移的采样       : 是
去除首尾静音块               : 否
在CRC 计算中使用了空样本       : 是
已用接口                  : Win NT 及 2000 本地 Win32 接口

所用输出模式: : 内部 WAV 函数
样本格式    : 44.100 Hz; 16 Bit; 立体声


已抓取 CD 的 TOC

     音轨 |    起始    |    长度    |  起始扇区  |  结束扇区  
    --------------------------------------------
      1 |  0:00.00 |  6:30.00 |      0 |  29249
      2 |  6:30.00 |  4:37.42 |  29250 |  50066
      3 | 11:07.42 |  2:42.50 |  50067 |  62266
      4 | 13:50.17 |  7:10.25 |  62267 |  94541
      5 | 21:00.42 |  4:36.45 |  94542 | 115286
      6 | 25:37.12 |  5:44.50 | 115287 | 141136
      7 | 31:21.62 |  3:24.15 | 141137 | 156451
      8 | 34:46.02 |  3:43.70 | 156452 | 173246
      9 | 38:29.72 |  0:56.53 | 173247 | 177499
     10 | 39:26.50 |  4:25.07 | 177500 | 197381
     11 | 43:51.57 |  3:38.43 | 197382 | 213774
     12 | 47:30.25 |  2:58.65 | 213775 | 227189
     13 | 50:29.15 |  4:36.50 | 227190 | 247939
     14 | 55:05.65 |  3:40.10 | 247940 | 264449
     15 | 58:46.00 |  3:22.67 | 264450 | 279666
     16 | 62:08.67 |  4:42.60 | 279667 | 300876
     17 | 66:51.52 |  0:11.70 | 300877 | 301771
     18 | 67:03.47 |  0:11.73 | 301772 | 302669
     19 | 67:15.45 |  0:11.72 | 302670 | 303566
     20 | 67:27.42 |  0:11.73 | 303567 | 304464
     21 | 67:39.40 |  0:11.67 | 304465 | 305356
     22 | 67:51.32 |  0:12.03 | 305357 | 306259
     23 | 68:03.35 |  0:11.62 | 306260 | 307146
     24 | 68:15.22 |  0:11.73 | 307147 | 308044
     25 | 68:27.20 |  0:11.72 | 308045 | 308941
     26 | 68:39.17 |  0:11.73 | 308942 | 309839
     27 | 68:51.15 |  0:11.70 | 309840 | 310734
     28 | 69:03.10 |  0:11.70 | 310735 | 311629
     29 | 69:15.05 |  0:11.72 | 311630 | 312526
     30 | 69:27.02 |  0:12.00 | 312527 | 313426
     31 | 69:39.02 |  0:11.65 | 313427 | 314316
     32 | 69:50.67 |  0:11.73 | 314317 | 315214
     33 | 70:02.65 |  0:11.72 | 315215 | 316111
     34 | 70:14.62 |  0:12.00 | 316112 | 317011
     35 | 70:26.62 |  0:11.70 | 317012 | 317906
     36 | 70:38.57 |  0:11.73 | 317907 | 318804
     37 | 70:50.55 |  0:11.70 | 318805 | 319699
     38 | 71:02.50 |  0:11.72 | 319700 | 320596
     39 | 71:14.47 |  0:11.70 | 320597 | 321491
     40 | 71:26.42 |  0:11.73 | 321492 | 322389
     41 | 71:38.40 |  0:11.72 | 322390 | 323286
     42 | 71:50.37 |  0:11.70 | 323287 | 324181
     43 | 72:02.32 |  0:11.70 | 324182 | 325076
     44 | 72:14.27 |  0:11.73 | 325077 | 325974
     45 | 72:26.25 |  0:10.45 | 325975 | 326769


范围状态及错误

已选择范围

     文件名 G:\音乐\原抓CD9\Various Artists 音声音世原抓CD - HUGO雨果发烧碟(一)\Various Artists 音声音世原抓CD - HUGO雨果发烧碟(一).wav

     峰值电平 100.0 %
     抓取速度 4.9 X
     范围质量 100.0 %
     复制 CRC 58C3415E
     复制成功

没有错误发生



---- CUETools DB Plugin V2.1.3

[CTDB TOCID: 8QnIIipfp_K3TsBujWj9rWMrXEQ-] found, Submit result: 8QnIIipfp_K3TsBujWj9rWMrXEQ- has been confirmed
[c65f7e98] (22/24) Differs in 5 samples @03:23:18,03:24:72,05:23:21,05:47:43
[ce08e0fd] (01/24) No match
[863ccef8] (01/24) Accurately ripped
You can use CUETools to repair this rip.



Exact Audio Copy V1.0 beta 3 from 29. August 2011

EAC 抓取日志文件从27. 三月 2015, 17:40

Various Artists 音声音世原抓CD / HUGO 雨果发烧碟(二)

使用驱动器  :PIONEER DVD-ROM DVD-232   Adapter: 2  ID: 0

读取模式      : 可靠Secure
使用精确流     : 是
清空音频缓存    : 是
使用 C2 指示器 : 否

读取偏移校正:               : 6
读取 Lead-In 和 Lead-Out : 否
用静音填充抓取中丢失偏移的采样       : 是
去除首尾静音块               : 否
在CRC 计算中使用了空样本       : 是
已用接口                  : Win NT 及 2000 本地 Win32 接口

所用输出模式: : 内部 WAV 函数
样本格式    : 44.100 Hz; 16 Bit; 立体声


已抓取 CD 的 TOC

     音轨 |    起始    |    长度    |  起始扇区  |  结束扇区  
    --------------------------------------------
      1 |  0:00.00 |  6:29.07 |      0 |  29181
      2 |  6:29.07 |  4:31.13 |  29182 |  49519
      3 | 11:00.20 |  1:51.62 |  49520 |  57906
      4 | 12:52.07 |  7:39.28 |  57907 |  92359
      5 | 20:31.35 |  3:59.10 |  92360 | 110294
      6 | 24:30.45 |  3:55.05 | 110295 | 127924
      7 | 28:25.50 |  2:05.60 | 127925 | 137359
      8 | 30:31.35 |  3:13.32 | 137360 | 151866
      9 | 33:44.67 |  6:32.18 | 151867 | 181284
     10 | 40:17.10 |  7:26.17 | 181285 | 214751
     11 | 47:43.27 |  3:57.73 | 214752 | 232599
     12 | 51:41.25 |  9:07.70 | 232600 | 273694
     13 | 60:49.20 |  1:52.22 | 273695 | 282116
     14 | 62:41.42 |  2:10.00 | 282117 | 291866
     15 | 64:51.42 |  1:59.68 | 291867 | 300859
     16 | 66:51.35 |  2:13.35 | 300860 | 310869
     17 | 69:04.70 |  2:03.32 | 310870 | 320126
     18 | 71:08.27 |  1:56.13 | 320127 | 328839


范围状态及错误

已选择范围

     文件名 G:\音乐\原抓CD9\Various Artists 音声音世原抓CD - HUGO 雨果发烧碟(二)\Various Artists 音声音世原抓CD - HUGO 雨果发烧碟(二).wav

     峰值电平 100.0 %
     抓取速度 4.9 X
     范围质量 100.0 %
     复制 CRC D89655A5
     复制成功

没有错误发生


AccurateRip 摘要

音轨  1  精确地校准抓取  4)  [550D7A35]  (AR v2)
音轨  2  精确地校准抓取  4)  [10488D3E]  (AR v2)
音轨  3  精确地校准抓取  4)  [C56AF093]  (AR v2)
音轨  4  精确地校准抓取  4)  [97804437]  (AR v2)
音轨  5  精确地校准抓取  4)  [204F0830]  (AR v2)
音轨  6  精确地校准抓取  4)  [1651AB23]  (AR v2)
音轨  7  精确地校准抓取  4)  [95BA425E]  (AR v2)
音轨  8  精确地校准抓取  4)  [4DC78A91]  (AR v2)
音轨  9  精确地校准抓取  4)  [FBCCCC3A]  (AR v2)
音轨 10  精确地校准抓取  4)  [7C4744D9]  (AR v2)
音轨 11  精确地校准抓取  4)  [7EA881A7]  (AR v2)
音轨 12  精确地校准抓取  4)  [E1B02AC5]  (AR v2)
音轨 13  精确地校准抓取  4)  [FA0009FD]  (AR v2)
音轨 14  精确地校准抓取  4)  [5DDEAF85]  (AR v2)
音轨 15  精确地校准抓取  4)  [1C463528]  (AR v2)
音轨 16  精确地校准抓取  4)  [9CAFC909]  (AR v2)
音轨 17  精确地校准抓取  4)  [28104E48]  (AR v2)
音轨 18  精确地校准抓取  4)  [C3B1EF61]  (AR v2)

所有音轨精确校准抓取

状态报告结尾

---- CUETools DB Plugin V2.1.3

[CTDB TOCID: i9wCvVTrxkk0yPnYVe4dKkYBRA4-] found, Submit result: i9wCvVTrxkk0yPnYVe4dKkYBRA4- has been confirmed
[eab55fe3] (07/15) Accurately ripped
[aa8bbb0b] (01/15) No match
[00c53b43] (05/15) No match
[c1ea2924] (01/15) No match
[953bf659] (01/15) No match






此资源供爱好音乐的朋友交流,请您于下载二十四小时后删除。
如您喜欢本资源,请购买正版CD,切勿用于商业目的。



评分

参与人数 1威望 +3 金钱 +100 收起 理由
天下太平 + 3 + 100 很给力!

查看全部评分

微信号17502199718   
发烧音响CD群40361905(不定期上传本人原版CD抓轨WAV)
回复

使用道具 举报

16

主题

1024

帖子

2

威望

初级会员

Rank: 2Rank: 2

交易诚信度
0
注册时间
2005-8-25
发表于 2015-3-28 06:09 来自家电论坛网手机触屏版 | 显示全部楼层
感谢版主
回复 支持 反对

使用道具 举报

16

主题

1024

帖子

2

威望

初级会员

Rank: 2Rank: 2

交易诚信度
0
注册时间
2005-8-25
发表于 2015-3-28 06:15 来自家电论坛网手机触屏版 | 显示全部楼层
感谢楼主
回复 支持 反对

使用道具 举报

3

主题

521

帖子

0

威望

初级会员

Rank: 2Rank: 2

交易诚信度
0
注册时间
2007-7-25
发表于 2015-3-28 08:56 | 显示全部楼层

感谢楼主
感谢楼主
回复 支持 反对

使用道具 举报

2

主题

2078

帖子

0

威望

初级会员

Rank: 2Rank: 2

交易诚信度
0
注册时间
2008-9-23
发表于 2015-3-28 12:14 | 显示全部楼层
感谢楼主,感谢楼主!



做豆腐--做硬了是豆腐干 做稀了是豆腐脑 做薄了是豆腐皮 做没了是豆浆 放臭了是臭豆腐
回复 支持 反对

使用道具 举报

6

主题

1224

帖子

11

威望

中级会员

Rank: 3Rank: 3Rank: 3

交易诚信度
10
注册时间
2004-4-27
QQ
发表于 2015-3-28 12:23 | 显示全部楼层
日本东芝首版香港雨果发烧碟1 2
音乐承载着我们的灵魂
回复 支持 反对

使用道具 举报

403

主题

4万

帖子

47

威望

特级会员

Rank: 5Rank: 5Rank: 5Rank: 5Rank: 5

交易诚信度
0
注册时间
2007-4-15
发表于 2015-3-28 16:46 | 显示全部楼层
这也是经典
C:\Users\Administrator\Desktop\9345d688d43f8794d5ad2313d31b0ef41bd53ab8.gif嘻嘻哈哈又一天
回复 支持 反对

使用道具 举报

20

主题

986

帖子

5

威望

中级会员

Rank: 3Rank: 3Rank: 3

交易诚信度
0
注册时间
2006-12-21
发表于 2015-3-28 19:25 | 显示全部楼层
谢谢!看来要小心烧喇叭啊
回复 支持 反对

使用道具 举报

15

主题

1302

帖子

0

威望

初级会员

Rank: 2Rank: 2

交易诚信度
2
注册时间
2004-11-25
发表于 2015-3-28 20:48 | 显示全部楼层
谢谢分享
回复 支持 反对

使用道具 举报

1

主题

272

帖子

0

威望

新手上路

Rank: 1

交易诚信度
0
注册时间
2014-11-1
发表于 2015-3-28 21:25 | 显示全部楼层
谢谢分享
回复 支持 反对

使用道具 举报

50

主题

856

帖子

0

威望

初级会员

Rank: 2Rank: 2

交易诚信度
2
注册时间
2014-10-8
发表于 2015-3-28 22:24 | 显示全部楼层
回复 支持 反对

使用道具 举报

0

主题

7

帖子

0

威望

新手上路

Rank: 1

交易诚信度
0
注册时间
2015-2-24
发表于 2015-3-28 23:30 | 显示全部楼层
在群上看到的,楼主辛苦了啊
回复 支持 反对

使用道具 举报

5

主题

213

帖子

0

威望

新手上路

Rank: 1

交易诚信度
0
注册时间
2005-8-22
发表于 2015-3-28 23:32 | 显示全部楼层
很好,等待中!!!
回复 支持 反对

使用道具 举报

23

主题

142

帖子

3

威望

初级会员

Rank: 2Rank: 2

交易诚信度
0
注册时间
2014-5-29
发表于 2015-3-28 23:44 | 显示全部楼层
音兄好碟啊
下来比较下
回复 支持 反对

使用道具 举报

22

主题

1891

帖子

0

威望

初级会员

Rank: 2Rank: 2

交易诚信度
0
注册时间
2009-9-2
发表于 2015-3-28 23:55 | 显示全部楼层
{:soso_e194:}{:soso_e179:}
回复 支持 反对

使用道具 举报

您需要登录后才可以回帖 登录 | 注册

本版积分规则

关闭

今日推荐上一条 /2 下一条

小黑屋|Archiver|手机版|客服热线:010-68636033|广告合作|家电联盟网 ( 京公网安备11010702000821 京ICP证041102号,京ICP备09075138号-3

GMT+8, 2018-4-25 13:00 , Processed in 0.214135 second(s), 42 queries , Gzip On, Memcache On.

Powered by Discuz! X3.2

© 2001-2013 Comsenz Inc.