请选择 进入手机版 | 继续访问电脑版
广告招商

[轻音乐/民乐/OST] 雨果唱片乔治.迈克尔-天使之恋(发烧吉他)(WAV/百度)

查看: 20726|回复: 408

394

主题

5485

帖子

365

威望

版主

Rank: 10

积极参与奖

交易诚信度
8
注册时间
2007-12-31
QQ
发表于 2015-3-18 22:41 | 显示全部楼层 |阅读模式

马上注册 家电论坛,众多有奖活动等你来参与!

您需要 登录 才可以下载或查看,没有帐号?注册

x
雨果唱片乔治.迈克尔-天使之恋(吉他)(WAV/百度)


本人所发的每一个帖子都是本人亲自用正版CD原抓的,音质绝对保证




游客,如果您要查看本帖隐藏内容请回复





解压密码:2015/3/18


莎恩.希尔是深受乐迷喜爱的一位吉他大师,他在一次偶然的机会里从收音机里听到当今流行乐坛的著名歌手乔治.迈克尔的''傻瓜之吻”这首歌,立即被其优美的旋律深深打动,遂萌发了选录迈克尔作品制作专辑的愿望。经与另一位吉他高西蒙.詹姆斯合作,终于成就了这张CD。在此专辑中,希尔使用的是一把金属吉他和一把爵士吉他,而詹姆斯则操一把尼龙弦的吉他。其他参与的乐器不多但极富流行特色,夫吕号、小号、萨克斯、键盘,外加电子钢琴和哈蒙德电子风琴。此外,宾厄姆弦乐四重奏团也加入录音阵营。在“母亲的骄傲”这首歌曲中,温暖的弦乐味表现的最为浓郁,充分显示了弦乐的魅力
专辑曲目:
01. Careless Whisper 无心细语 [4:31]
02. Jesus to a Child耶稣与孩子 [5:54]
03. Hand to Mouth心手相连 [4:17]
04. Kissing a Fool 傻瓜之吻 [4:18]
05. The Strangest Thing咄咄怪事 [6:23]
06. A Different Corner不同的角落 [3:45]
07. Club Tropicana托比卡拉俱乐部 [3:31]
08. Move on前进 [5:26]
09. Mother's Pride母亲的骄傲 [3:44]
10. Older成长 [5:27]
11. Cowboys and Angels天使之恋 [5:56]
12. Faith信念 [3:36]
13. Last Christmas去年圣诞 [4:50]

DSC09217.JPG DSC09218.JPG DSC09219.JPG DSC09220.JPG DSC09221.JPG DSC09222.JPG


Exact Audio Copy V1.0 beta 3 from 29. August 2011

EAC 抓取日志文件从28. 十月 2014, 15:51

George Michael 音声音世原抓CD / Cowboys and Angels

使用驱动器  :PIONEER DVD-ROM DVD-232   Adapter: 2  ID: 0

读取模式      : 可靠Secure
使用精确流     : 是
清空音频缓存    : 是
使用 C2 指示器 : 否

读取偏移校正:               : 6
读取 Lead-In 和 Lead-Out : 否
用静音填充抓取中丢失偏移的采样       : 是
去除首尾静音块               : 否
在CRC 计算中使用了空样本       : 是
已用接口                  : Win NT 及 2000 本地 Win32 接口

所用输出模式: : 内部 WAV 函数
样本格式    : 44.100 Hz; 16 Bit; 立体声


已抓取 CD 的 TOC

     音轨 |    起始    |    长度    |  起始扇区  |  结束扇区  
    --------------------------------------------
      1 |  0:00.00 |  4:30.50 |      0 |  20299
      2 |  4:30.50 |  5:54.25 |  20300 |  46874
      3 | 10:25.00 |  4:16.47 |  46875 |  66121
      4 | 14:41.47 |  4:18.18 |  66122 |  85489
      5 | 18:59.65 |  6:22.45 |  85490 | 114184
      6 | 25:22.35 |  3:44.50 | 114185 | 131034
      7 | 29:07.10 |  3:30.57 | 131035 | 146841
      8 | 32:37.67 |  5:26.18 | 146842 | 171309
      9 | 38:04.10 |  3:43.72 | 171310 | 188106
     10 | 41:48.07 |  5:26.70 | 188107 | 212626
     11 | 47:15.02 |  5:56.10 | 212627 | 239336
     12 | 53:11.12 |  3:36.22 | 239337 | 255558
     13 | 56:47.34 |  4:50.13 | 255559 | 277321


范围状态及错误

已选择范围

     文件名 G:\音乐\原抓CD8\George Michael 音声音世原抓CD - Cowboys and Angels\George Michael 音声音世原抓CD - Cowboys and Angels.wav

     峰值电平 100.0 %
     抓取速度 1.8 X
     范围质量 100.0 %
     复制 CRC 3CFAF967
     复制成功

没有错误发生




状态报告结尾

---- CUETools DB Plugin V2.1.3

[CTDB TOCID: RGFR.phf0d3QVTRv5vpe3SjpeNs-] found, Submit result: RGFR.phf0d3QVTRv5vpe3SjpeNs- has been uploaded
[24608a82] (1/1) Differs in 3534 samples @20:51:20-20:51:21,20:51:34-20:51:35,20:52:42-20:52:43,20:52:70
You can use CUETools to repair this rip.




此资源供爱好音乐的朋友交流,请您于下载二十四小时后删除。
如您喜欢本资源,请购买正版CD,切勿用于商业目的。



评分

参与人数 1威望 +1 金钱 +100 收起 理由
天下太平 + 1 + 100 赞一个!

查看全部评分

微信号17502199718    发烧音响CD群40361905(不定期上传本人原版CD抓轨WAV)
回复

使用道具 举报

45

主题

2133

帖子

10

威望

中级会员

Rank: 3Rank: 3Rank: 3

交易诚信度
1
注册时间
2015-1-24
发表于 2015-3-19 10:27 | 显示全部楼层
好人,谢谢。帮顶。
回复 支持 反对

使用道具 举报

0

主题

229

帖子

0

威望

新手上路

Rank: 1

交易诚信度
0
注册时间
2013-10-16
发表于 2015-3-19 12:20 | 显示全部楼层
不错。。。这个要有。。。。
回复 支持 反对

使用道具 举报

0

主题

64

帖子

0

威望

新手上路

Rank: 1

交易诚信度
0
注册时间
2015-2-23
发表于 2015-3-19 15:26 | 显示全部楼层
good!!
回复 支持 反对

使用道具 举报

4

主题

400

帖子

0

威望

初级会员

Rank: 2Rank: 2

交易诚信度
0
注册时间
2009-7-28
发表于 2015-3-19 15:38 | 显示全部楼层
看一看。
回复 支持 反对

使用道具 举报

0

主题

1000

帖子

2

威望

初级会员

Rank: 2Rank: 2

交易诚信度
0
注册时间
2007-11-8
发表于 2015-3-19 18:19 | 显示全部楼层
下载欣赏……
回复 支持 反对

使用道具 举报

0

主题

20

帖子

-1

威望

乞丐

交易诚信度
0
注册时间
2015-1-25
发表于 2015-3-19 22:02 | 显示全部楼层
准备入手听听,不知道如何。
回复 支持 反对

使用道具 举报

1

主题

265

帖子

0

威望

新手上路

Rank: 1

交易诚信度
0
注册时间
2014-11-1
发表于 2015-3-20 09:16 | 显示全部楼层
谢谢分享
回复 支持 反对

使用道具 举报

0

主题

4

帖子

0

威望

新手上路

Rank: 1

交易诚信度
0
注册时间
2015-3-20
发表于 2015-3-20 10:25 | 显示全部楼层

谢谢分享
回复 支持 反对

使用道具 举报

0

主题

156

帖子

0

威望

新手上路

Rank: 1

交易诚信度
0
注册时间
2005-2-18
发表于 2015-3-20 20:42 | 显示全部楼层
好碟,支持
回复 支持 反对

使用道具 举报

0

主题

183

帖子

0

威望

新手上路

Rank: 1

交易诚信度
0
注册时间
2014-6-8
发表于 2015-3-20 21:33 | 显示全部楼层
谢谢楼主的分享
回复 支持 反对

使用道具 举报

5

主题

3448

帖子

7

威望

高级会员

Rank: 4Rank: 4Rank: 4Rank: 4

交易诚信度
27
注册时间
2007-3-13
发表于 2015-3-20 22:02 | 显示全部楼层
谢谢
回复 支持 反对

使用道具 举报

2

主题

90

帖子

0

威望

新手上路

Rank: 1

交易诚信度
0
注册时间
2006-2-16
发表于 2015-3-21 06:50 | 显示全部楼层
zhichizhichi
回复 支持 反对

使用道具 举报

25

主题

928

帖子

18

威望

中级会员

Rank: 3Rank: 3Rank: 3

交易诚信度
0
注册时间
2001-11-21
发表于 2015-3-21 17:49 | 显示全部楼层
谢谢帮助发布资源
强调性价比!!!寻找适合老百性自己的产品!!!最可靠的是你的眼睛和耳朵!!!
回复 支持 反对

使用道具 举报

0

主题

42

帖子

0

威望

新手上路

Rank: 1

交易诚信度
0
注册时间
2006-1-2
发表于 2015-3-22 11:22 | 显示全部楼层
好人,谢谢。
回复 支持 反对

使用道具 举报

您需要登录后才可以回帖 登录 | 注册

本版积分规则

小黑屋|Archiver|手机版|网站热线:010-68636033 账号问题加QQ群:194098586|广告合作|家电联盟网 ( 京公网安备11010702000821 京ICP证041102号,京ICP备09075138号-3

GMT+8, 2018-1-19 01:21 , Processed in 0.193110 second(s), 43 queries , Gzip On, Memcache On.

Powered by Discuz! X3.2

© 2001-2013 Comsenz Inc.