请选择 进入手机版 | 继续访问电脑版
广告招商

[流行/摇滚/乡村] 日本宝丽金唱片99年天龙压碟1M2 王菲 - The Best of Best(WAV/百度)

查看: 21511|回复: 352

430

主题

5681

帖子

366

威望

版主

Rank: 10

积极参与奖

交易诚信度
8
注册时间
2007-12-31
QQ
发表于 2015-2-5 22:58 | 显示全部楼层 |阅读模式

马上注册 家电论坛,众多有奖活动等你来参与!

您需要 登录 才可以下载或查看,没有帐号?注册

x
日本宝丽金唱片99年天龙压碟1M2  王菲  - The Best of Best(WAV/百度)



本人所发的每一个帖子都是本人亲自用正版CD原抓的,音质绝对保证

游客,如果您要查看本帖隐藏内容请回复




解压密码:2015/2/5


「THE BEST OF BEST」是日本獨自企劃,是王菲1999年去日本舉行武道館演唱會的時候,由PolyGram Japan發行的來日紀念盤。特別之處在於唱片封面、封底及內頁造型均未出現在任何一張港台版的專輯當中,印象中這組照片只在日本的一本雜誌中出現過。當然PolyGram Japan也沒有刻意迴避王菲移籍EMI的事實。

DSC09005.JPG DSC09006.JPG DSC09007.JPG DSC09008.JPG DSC09009.JPG DSC09010.JPG DSC09011.JPG


Exact Audio Copy V1.0 beta 3 from 29. August 2011

EAC 抓取日志文件从26. 一月 2015, 11:57

王菲 音声音世原抓CD / The Best of Best

使用驱动器  :PIONEER DVD-ROM DVD-232   Adapter: 2  ID: 0

读取模式      : 可靠Secure
使用精确流     : 是
清空音频缓存    : 是
使用 C2 指示器 : 否

读取偏移校正:               : 6
读取 Lead-In 和 Lead-Out : 否
用静音填充抓取中丢失偏移的采样       : 是
去除首尾静音块               : 否
在CRC 计算中使用了空样本       : 是
已用接口                  : Win NT 及 2000 本地 Win32 接口

所用输出模式: : 内部 WAV 函数
样本格式    : 44.100 Hz; 16 Bit; 立体声


已抓取 CD 的 TOC

     音轨 |    起始    |    长度    |  起始扇区  |  结束扇区  
    --------------------------------------------
      1 |  0:00.00 |  3:46.12 |      0 |  16961
      2 |  3:46.12 |  4:31.00 |  16962 |  37286
      3 |  8:17.12 |  5:23.20 |  37287 |  61531
      4 | 13:40.32 |  4:22.00 |  61532 |  81181
      5 | 18:02.32 |  4:44.00 |  81182 | 102481
      6 | 22:46.32 |  4:22.08 | 102482 | 122139
      7 | 27:08.40 |  3:11.22 | 122140 | 136486
      8 | 30:19.62 |  3:59.25 | 136487 | 154436
      9 | 34:19.12 |  4:49.25 | 154437 | 176136
     10 | 39:08.37 |  4:21.50 | 176137 | 195761
     11 | 43:30.12 |  4:50.45 | 195762 | 217556
     12 | 48:20.57 |  3:28.18 | 217557 | 233174
     13 | 51:49.00 |  3:17.57 | 233175 | 248006
     14 | 55:06.57 |  2:29.68 | 248007 | 259249
     15 | 57:36.50 |  4:41.20 | 259250 | 280344
     16 | 62:17.70 |  2:35.67 | 280345 | 292036
     17 | 64:53.62 |  3:01.53 | 292037 | 305664
     18 | 67:55.40 |  4:10.15 | 305665 | 324429
     19 | 72:05.55 |  3:04.45 | 324430 | 338274


范围状态及错误

已选择范围

     文件名 G:\音乐\原抓CD8\王菲 音声音世原抓CD - The Best of Best\王菲 音声音世原抓CD - The Best of Best.wav

     峰值电平 100.0 %
     抓取速度 2.0 X
     范围质量 100.0 %
     复制 CRC 3B575219
     复制成功

没有错误发生


AccurateRip 摘要

音轨  1  精确地校准抓取  3)  [87763155]  (AR v2)
音轨  2  精确地校准抓取  3)  [0E2604C6]  (AR v2)
音轨  3  精确地校准抓取  3)  [B802F453]  (AR v2)
音轨  4  精确地校准抓取  3)  [6B698395]  (AR v2)
音轨  5  精确地校准抓取  3)  [1780D772]  (AR v2)
音轨  6  精确地校准抓取  3)  [0110C9CF]  (AR v2)
音轨  7  精确地校准抓取  3)  [E4843BEE]  (AR v2)
音轨  8  精确地校准抓取  3)  [650D84F3]  (AR v2)
音轨  9  精确地校准抓取  3)  [DDC6077C]  (AR v2)
音轨 10  精确地校准抓取  3)  [6DD8FCCF]  (AR v2)
音轨 11  精确地校准抓取  3)  [8D207DF1]  (AR v2)
音轨 12  精确地校准抓取  3)  [A9ED3E0D]  (AR v2)
音轨 13  精确地校准抓取  3)  [6A141C0A]  (AR v2)
音轨 14  精确地校准抓取  3)  [EB7C2B22]  (AR v2)
音轨 15  精确地校准抓取  3)  [389BAFF7]  (AR v2)
音轨 16  精确地校准抓取  3)  [2B7683F0]  (AR v2)
音轨 17  精确地校准抓取  3)  [305D9255]  (AR v2)
音轨 18  精确地校准抓取  3)  [F84D55FF]  (AR v2)
音轨 19  精确地校准抓取  3)  [7C687C74]  (AR v2)

所有音轨精确校准抓取

状态报告结尾

---- CUETools DB Plugin V2.1.3

[CTDB TOCID: _e98xRpdVQlwztL.87sgWjGR06Y-] found, Submit result: _e98xRpdVQlwztL.87sgWjGR06Y- has been confirmed
[70612149] (07/23) Accurately ripped
[145ef8d4] (15/23) No match
[6a98b894] (01/23) No match





此资源供爱好音乐的朋友交流,请您于下载二十四小时后删除。
如您喜欢本资源,请购买正版CD,切勿用于商业目的。

微信号17502199718   
发烧音响CD群40361905(不定期上传本人原版CD抓轨WAV)
回复

使用道具 举报

1

主题

272

帖子

0

威望

新手上路

Rank: 1

交易诚信度
0
注册时间
2014-11-1
发表于 2015-2-5 23:21 | 显示全部楼层
谢谢分享
回复

使用道具 举报

1

主题

686

帖子

3

威望

初级会员

Rank: 2Rank: 2

交易诚信度
0
注册时间
2013-3-2
发表于 2015-2-6 00:20 | 显示全部楼层
非常感谢!
回复

使用道具 举报

8

主题

892

帖子

19

威望

高级会员

Rank: 4Rank: 4Rank: 4Rank: 4

交易诚信度
0
注册时间
2007-4-4
发表于 2015-2-6 07:52 | 显示全部楼层
天后的歌曲要支持,谢谢斑竹分享
回复

使用道具 举报

0

主题

363

帖子

0

威望

初级会员

Rank: 2Rank: 2

交易诚信度
2
注册时间
2005-11-23
发表于 2015-2-6 08:39 | 显示全部楼层
弱弱的问一句,是唱日语的吗?
回复

使用道具 举报

0

主题

233

帖子

0

威望

新手上路

Rank: 1

交易诚信度
0
注册时间
2013-10-16
发表于 2015-2-6 11:17 | 显示全部楼层
不错。。。。进来听听。。。。
回复

使用道具 举报

2

主题

263

帖子

4

威望

中级会员

Rank: 3Rank: 3Rank: 3

交易诚信度
0
注册时间
2006-10-5
发表于 2015-2-6 11:57 | 显示全部楼层
非常感谢
回复

使用道具 举报

0

主题

396

帖子

4

威望

中级会员

Rank: 3Rank: 3Rank: 3

交易诚信度
2
注册时间
2009-5-21
发表于 2015-2-6 12:40 | 显示全部楼层
这张精选精彩。
回复

使用道具 举报

0

主题

11

帖子

0

威望

新手上路

Rank: 1

交易诚信度
0
注册时间
2015-2-6
发表于 2015-2-6 13:10 | 显示全部楼层
谢谢分享
回复

使用道具 举报

1

主题

125

帖子

0

威望

新手上路

Rank: 1

交易诚信度
0
注册时间
2005-9-25
发表于 2015-2-6 16:55 | 显示全部楼层
好歌!
回复

使用道具 举报

2

主题

41

帖子

0

威望

新手上路

Rank: 1

交易诚信度
0
注册时间
2015-1-25
发表于 2015-2-6 18:25 | 显示全部楼层
虽然王菲性格个人不太喜欢,但歌声还是可以的
回复

使用道具 举报

32

主题

1241

帖子

2

威望

初级会员

Rank: 2Rank: 2

交易诚信度
0
注册时间
2005-8-25
发表于 2015-2-7 07:09 来自家电论坛网手机触屏版 | 显示全部楼层
谢谢楼主
回复

使用道具 举报

1

主题

56

帖子

0

威望

新手上路

Rank: 1

交易诚信度
0
注册时间
2014-12-28
发表于 2015-2-7 07:33 | 显示全部楼层
another good version, thanks a lot
回复

使用道具 举报

6

主题

661

帖子

0

威望

初级会员

Rank: 2Rank: 2

交易诚信度
0
注册时间
2004-10-15
发表于 2015-2-7 15:32 | 显示全部楼层
谢谢!
回复

使用道具 举报

0

主题

116

帖子

-1

威望

乞丐

交易诚信度
0
注册时间
2014-11-17
发表于 2015-2-7 16:02 | 显示全部楼层
回复

使用道具 举报

您需要登录后才可以回帖 登录 | 注册

本版积分规则

小黑屋|Archiver|手机版|客服热线:010-68636033 QQ群:194098586|广告合作|家电联盟网 ( 京公网安备11010702000821 京ICP证041102号,京ICP备09075138号-3

GMT+8, 2018-12-11 10:33 , Processed in 0.273161 second(s), 42 queries , Gzip On, Memcache On.

Powered by Discuz! X3.2 Licensed

© 2001-2013 Comsenz Inc.