请选择 进入手机版 | 继续访问电脑版
广告招商

[古典/交响乐/New Age] 日本JVC无IFPI首版ONDEKOZA II(鬼太鼓座II)(WAV/百度)

查看: 19748|回复: 282

427

主题

5675

帖子

366

威望

版主

Rank: 10

积极参与奖

交易诚信度
8
注册时间
2007-12-31
QQ
发表于 2015-2-4 14:10 | 显示全部楼层 |阅读模式

马上注册 家电论坛,众多有奖活动等你来参与!

您需要 登录 才可以下载或查看,没有帐号?注册

x
日本JVC无IFPI首版ONDEKOZA II(鬼太鼓座II)(WAV/百度)



本人所发的每一个帖子都是本人亲自用正版CD原抓的,音质绝对保证



游客,如果您要查看本帖隐藏内容请回复





解压密码:2015/2/4




鬼太鼓座组合的表演包括传统打击乐鼓为主奏乐器(太鼓),辅以尺八(类似羌笛)、三味线(类似三弦)等民族器乐、体魄健美的舞蹈等。其演奏充满淳朴的民间乐风与日本民族古早时代神秘的气氛。各种不同类型、大小高低、音色各异的鼓声,奏鸣出震撼心魄的乐响。太鼓座组合提倡一种“马拉松”的体育精神,主张音乐与人的原始的野性的结合,他们的演出得到了广泛的认可和欢迎,该组合于 80年代初曾一度分裂,不久重新组织起第二代乐手至今。其乐手成员不分国度和种族,像大家庭一样和睦相处。
初听日本太鼓座组合的演奏,会觉得节奏单调呆板,不善变化。只有细细品味,才会渐渐在这简洁、有力的鼓声中感悟出无以比拟的坚毅的力量。有时令人窒息的单一节奏的鼓乐片断会长达数分钟之久,体现出一种无畏、坚韧,一往直前的音乐风范。
“太鼓”是日本传统的鼓艺表演形式,由于其所擂出的山崩地裂的巨响,加上低频如飓风般袭来,其音压之高,力道之强,爆发音之猛,非言语所能形容。鼓乐的齐奏与独奏交错而至,令人陶醉。鬼太鼓座的创始人田耕(Tagayasu兽穴),是一手缔造鬼太鼓座的思想及行动舵手。


img038.jpg img039.jpg img040.jpg img042.jpg


Exact Audio Copy V1.0 beta 3 from 29. August 2011

EAC 抓取日志文件从22. 十一月 2014, 13:14

ONDEKOZA 音声音世原抓CD / ONDEKOZA II

使用驱动器  :PIONEER DVD-ROM DVD-232   Adapter: 2  ID: 0

读取模式      : 可靠Secure
使用精确流     : 是
清空音频缓存    : 是
使用 C2 指示器 : 否

读取偏移校正:               : 6
读取 Lead-In 和 Lead-Out : 否
用静音填充抓取中丢失偏移的采样       : 是
去除首尾静音块               : 否
在CRC 计算中使用了空样本       : 是
已用接口                  : Win NT 及 2000 本地 Win32 接口

所用输出模式: : 内部 WAV 函数
样本格式    : 44.100 Hz; 16 Bit; 立体声


已抓取 CD 的 TOC

     音轨 |    起始    |    长度    |  起始扇区  |  结束扇区  
    --------------------------------------------
      1 |  0:00.37 | 17:13.73 |     37 |  77584
      2 | 17:14.35 | 17:22.00 |  77585 | 155734
      3 | 34:36.35 |  8:29.25 | 155735 | 193934


范围状态及错误

已选择范围

     文件名 G:\音乐\原抓CD8\ONDEKOZA 音声音世原抓CD - ONDEKOZA II\ONDEKOZA 音声音世原抓CD - ONDEKOZA II.wav

     峰值电平 100.0 %
     抓取速度 6.8 X
     范围质量 100.0 %
     复制 CRC 4B3A9126
     复制成功

没有错误发生


AccurateRip 摘要

音轨  1  精确地校准抓取  2)  [5F9E6D14]  (AR v1)
音轨  2  精确地校准抓取  2)  [9A53EB07]  (AR v1)
音轨  3  精确地校准抓取  2)  [FDAEC04D]  (AR v1)

所有音轨精确校准抓取

状态报告结尾

---- CUETools DB Plugin V2.1.3

[CTDB TOCID: 27Bo1O5UB3zuFogKwZSOjGs0VlI-] disk not present in database, Submit result: database access error: 操作超时



此资源供爱好音乐的朋友交流,请您于下载二十四小时后删除。
如您喜欢本资源,请购买正版CD,切勿用于商业目的。




评分

参与人数 1威望 +1 金钱 +100 收起 理由
天下太平 + 1 + 100 很给力!

查看全部评分

微信号17502199718   
发烧音响CD群40361905(不定期上传本人原版CD抓轨WAV)
回复

使用道具 举报

22

主题

1184

帖子

2

威望

初级会员

Rank: 2Rank: 2

交易诚信度
0
注册时间
2005-8-25
发表于 2015-2-4 14:18 来自家电论坛网手机触屏版 | 显示全部楼层
谢谢楼主
回复

使用道具 举报

1

主题

272

帖子

0

威望

新手上路

Rank: 1

交易诚信度
0
注册时间
2014-11-1
发表于 2015-2-4 14:28 | 显示全部楼层
谢谢分享
回复

使用道具 举报

0

主题

153

帖子

0

威望

新手上路

Rank: 1

交易诚信度
0
注册时间
2009-2-16
发表于 2015-2-4 18:13 | 显示全部楼层
感谢楼主的贡献!
回复

使用道具 举报

0

主题

131

帖子

-2

威望

乞丐

交易诚信度
1
注册时间
2014-5-13
发表于 2015-2-4 19:06 | 显示全部楼层
回复

使用道具 举报

83

主题

2507

帖子

5

威望

中级会员

Rank: 3Rank: 3Rank: 3

交易诚信度
0
注册时间
2012-10-11
QQ
发表于 2015-2-4 21:55 | 显示全部楼层
支持楼主无私奉献
有追求必有付出与收获!
回复

使用道具 举报

5

主题

831

帖子

1

威望

中级会员

Rank: 3Rank: 3Rank: 3

交易诚信度
10
注册时间
2006-4-17
发表于 2015-2-5 06:14 | 显示全部楼层
谢谢楼主
回复

使用道具 举报

0

主题

63

帖子

0

威望

新手上路

Rank: 1

交易诚信度
0
注册时间
2012-2-4
发表于 2015-2-5 14:38 | 显示全部楼层
下来听听
回复

使用道具 举报

0

主题

135

帖子

0

威望

新手上路

Rank: 1

交易诚信度
0
注册时间
2011-12-27
发表于 2015-2-5 15:09 | 显示全部楼层
感谢楼主的贡献
回复

使用道具 举报

1

主题

56

帖子

0

威望

新手上路

Rank: 1

交易诚信度
0
注册时间
2014-12-28
发表于 2015-2-5 21:54 | 显示全部楼层
this is a good one, thanks
回复

使用道具 举报

29

主题

171

帖子

1

威望

初级会员

Rank: 2Rank: 2

交易诚信度
0
注册时间
2012-2-21
发表于 2015-2-6 09:24 | 显示全部楼层
找了很久 真的不错 谢谢!
回复

使用道具 举报

0

主题

233

帖子

0

威望

新手上路

Rank: 1

交易诚信度
0
注册时间
2013-10-16
发表于 2015-2-6 10:17 | 显示全部楼层
不错。。。进来欣赏。。。。
回复

使用道具 举报

6

主题

661

帖子

0

威望

初级会员

Rank: 2Rank: 2

交易诚信度
0
注册时间
2004-10-15
发表于 2015-2-7 15:47 | 显示全部楼层
谢谢版主!
回复

使用道具 举报

1

主题

642

帖子

3

威望

初级会员

Rank: 2Rank: 2

交易诚信度
0
注册时间
2008-11-15
发表于 2015-2-7 16:57 | 显示全部楼层
谢谢分享
回复

使用道具 举报

0

主题

1

帖子

0

威望

新手上路

Rank: 1

交易诚信度
0
注册时间
2015-1-13
发表于 2015-2-8 19:22 | 显示全部楼层
感謝分享好碟
回复

使用道具 举报

您需要登录后才可以回帖 登录 | 注册

本版积分规则

小黑屋|Archiver|手机版|客服热线:010-68636033 QQ群:194098586|广告合作|家电联盟网 ( 京公网安备11010702000821 京ICP证041102号,京ICP备09075138号-3

GMT+8, 2018-9-19 17:39 , Processed in 0.316876 second(s), 47 queries , Gzip On, Memcache On.

Powered by Discuz! X3.2 Licensed

© 2001-2013 Comsenz Inc.