请选择 进入手机版 | 继续访问电脑版
广告招商

[古典/交响乐/New Age] 美版泰拉克唱片无IFPI首版鲁道夫·塞尔金贝多芬第五钢琴协奏(WAV/百度)

查看: 10491|回复: 150

417

主题

5610

帖子

366

威望

版主

Rank: 10

积极参与奖

交易诚信度
8
注册时间
2007-12-31
QQ
发表于 2015-2-4 13:51 | 显示全部楼层 |阅读模式

马上注册 家电论坛,众多有奖活动等你来参与!

您需要 登录 才可以下载或查看,没有帐号?注册

x
美版泰拉克唱片无IFPI首版鲁道夫·塞尔金贝多芬第五钢琴协奏(WAV/百度)



本人所发的每一个帖子都是本人亲自用正版CD原抓的,音质绝对保证



游客,如果您要查看本帖隐藏内容请回复




解压密码:2015/2/4



美籍奥地利钢琴家,犹太人。9岁时到维也纳师从理查·罗伯特学钢琴,随勋伯格(Schoenberg)学作曲。12岁与维也纳爱乐乐团演奏钢琴协奏曲,开始了演奏生涯,17岁崭露头角。1935年与小提琴家布施的女儿结婚。他触键清晰、节奏平稳、声音纯正,不但是演奏巴赫作品的典范,而且是演奏莫扎特、贝多芬、舒伯特及勃拉姆斯作品的卓越代表。后到美国成为Malboro音乐节的艺术领导人。1926年在Basel音乐院任教,一直到1936年和托斯卡尼尼指挥的纽约交响乐团协作演奏协奏曲,才离开Basel在美定居,1939年入美籍并任柯蒂斯音乐学校钢琴系主任。
塞尔金演奏发音清晰明亮,线条层次分明,浑厚细致,光彩夺目。他演奏的深刻性可算是20世纪中叶钢琴家中的佼佼者。
其子彼得·塞尔金亦为知名钢琴家。


img025.jpg img026.jpg img026_副本.jpg


Exact Audio Copy V1.0 beta 3 from 29. August 2011

EAC 抓取日志文件从4. 二月 2015, 1:57

Rudolf Serkin (piano), Boston Symphony Orchestra  Seiji Ozawa音声音世原抓CD / Beethoven Piano Concerto No.5 Emperor

使用驱动器  :PIONEER DVD-ROM DVD-232   Adapter: 2  ID: 0

读取模式      : 可靠Secure
使用精确流     : 是
清空音频缓存    : 是
使用 C2 指示器 : 否

读取偏移校正:               : 6
读取 Lead-In 和 Lead-Out : 否
用静音填充抓取中丢失偏移的采样       : 是
去除首尾静音块               : 否
在CRC 计算中使用了空样本       : 是
已用接口                  : Win NT 及 2000 本地 Win32 接口

所用输出模式: : 内部 WAV 函数
样本格式    : 44.100 Hz; 16 Bit; 立体声


已抓取 CD 的 TOC

     音轨 |    起始    |    长度    |  起始扇区  |  结束扇区  
    --------------------------------------------
      1 |  0:00.00 | 21:25.65 |      0 |  96439
      2 | 21:25.65 |  8:21.25 |  96440 | 134039
      3 | 29:47.15 | 11:22.55 | 134040 | 185244


范围状态及错误

已选择范围

     文件名 G:\音乐\原抓CD9\Rudolf Serkin (piano), Boston Symphony Orchestra & Seiji Ozawa音声音世原抓CD - Beethoven¡EPiano Concerto No.5 'Emperor'\Rudolf Serkin (piano), Boston Symphony Orchestra  Seiji Ozawa音声音世原抓CD - Beethoven Piano Concerto No.5 Emperor.wav

     峰值电平 84.7 %
     抓取速度 4.0 X
     范围质量 100.0 %
     复制 CRC 878862A4
     复制成功

没有错误发生


AccurateRip 摘要

音轨  1  精确地校准抓取  2)  [AD752ECA]  (AR v2)
音轨  2  精确地校准抓取  2)  [9678FC8B]  (AR v2)
音轨  3  精确地校准抓取  2)  [D929F512]  (AR v2)

所有音轨精确校准抓取

状态报告结尾

---- CUETools DB Plugin V2.1.3

[CTDB TOCID: kmRgx7d17PT1tFQ4yBIcIWBB6dc-] found, Submit result: already submitted
[1f6608c2] (15/15) Accurately ripped



此资源供爱好音乐的朋友交流,请您于下载二十四小时后删除。
如您喜欢本资源,请购买正版CD,切勿用于商业目的。


评分

参与人数 1威望 +1 金钱 +100 收起 理由
天下太平 + 1 + 100 很给力!

查看全部评分

微信号17502199718   
发烧音响CD群40361905(不定期上传本人原版CD抓轨WAV)
回复

使用道具 举报

1

主题

272

帖子

0

威望

新手上路

Rank: 1

交易诚信度
0
注册时间
2014-11-1
发表于 2015-2-4 14:29 | 显示全部楼层
谢谢分享
回复 支持 反对

使用道具 举报

2

主题

468

帖子

0

威望

初级会员

Rank: 2Rank: 2

交易诚信度
2
注册时间
2011-3-4
发表于 2015-2-4 22:02 | 显示全部楼层
谢谢分享
回复 支持 反对

使用道具 举报

5

主题

830

帖子

1

威望

中级会员

Rank: 3Rank: 3Rank: 3

交易诚信度
10
注册时间
2006-4-17
发表于 2015-2-5 06:10 | 显示全部楼层
谢谢分享
回复 支持 反对

使用道具 举报

0

主题

153

帖子

0

威望

新手上路

Rank: 1

交易诚信度
0
注册时间
2009-2-16
发表于 2015-2-5 19:40 | 显示全部楼层
谢谢
回复 支持 反对

使用道具 举报

8

主题

197

帖子

0

威望

新手上路

Rank: 1

交易诚信度
0
注册时间
2010-9-26
发表于 2015-2-5 22:42 | 显示全部楼层
多谢版主大气分享~~
回复 支持 反对

使用道具 举报

1

主题

129

帖子

1

威望

初级会员

Rank: 2Rank: 2

交易诚信度
0
注册时间
2010-1-24
发表于 2015-2-6 08:58 | 显示全部楼层
谢音版分享!
回复 支持 反对

使用道具 举报

31

主题

1104

帖子

5

威望

中级会员

Rank: 3Rank: 3Rank: 3

交易诚信度
0
注册时间
2013-10-17
发表于 2015-2-7 11:32 | 显示全部楼层
谢谢分享!!!
回复 支持 反对

使用道具 举报

1

主题

678

帖子

3

威望

初级会员

Rank: 2Rank: 2

交易诚信度
0
注册时间
2013-3-2
发表于 2015-2-7 16:17 | 显示全部楼层
非常感谢!
回复 支持 反对

使用道具 举报

4

主题

245

帖子

0

威望

新手上路

Rank: 1

交易诚信度
0
注册时间
2014-3-22
发表于 2015-2-8 14:56 | 显示全部楼层
谢谢分享
回复 支持 反对

使用道具 举报

0

主题

114

帖子

0

威望

新手上路

Rank: 1

交易诚信度
0
注册时间
2004-12-2
发表于 2015-2-10 22:31 | 显示全部楼层
鲁道夫·塞尔金贝多芬第五钢琴协奏
回复 支持 反对

使用道具 举报

13

主题

106

帖子

0

威望

初级会员

Rank: 2Rank: 2

交易诚信度
4
注册时间
2006-1-4
发表于 2015-2-11 01:22 | 显示全部楼层
asdfasdfsda
回复 支持 反对

使用道具 举报

2

主题

54

帖子

1

威望

初级会员

Rank: 2Rank: 2

交易诚信度
0
注册时间
2012-11-14
发表于 2015-2-11 09:38 | 显示全部楼层
感谢感谢啊
回复 支持 反对

使用道具 举报

0

主题

21

帖子

-1

威望

乞丐

交易诚信度
0
注册时间
2015-1-25
发表于 2015-2-13 13:31 | 显示全部楼层
有必要下载下来,的确值得一听。
回复 支持 反对

使用道具 举报

0

主题

264

帖子

0

威望

新手上路

Rank: 1

交易诚信度
0
注册时间
2005-7-29
发表于 2015-2-16 21:10 | 显示全部楼层
好版本谢谢了
回复 支持 反对

使用道具 举报

您需要登录后才可以回帖 登录 | 注册

本版积分规则

关闭

今日推荐上一条 /1 下一条

小黑屋|Archiver|手机版|客服热线:010-68636033|广告合作|家电联盟网 ( 京公网安备11010702000821 京ICP证041102号,京ICP备09075138号-3

GMT+8, 2018-4-24 05:05 , Processed in 0.169863 second(s), 42 queries , Gzip On, Memcache On.

Powered by Discuz! X3.2

© 2001-2013 Comsenz Inc.