请选择 进入手机版 | 继续访问电脑版
广告招商

[流行/摇滚/乡村] 日本版发烧天碟崔岩光- 茉莉花(WAV/百度)

查看: 28011|回复: 530

394

主题

5485

帖子

365

威望

版主

Rank: 10

积极参与奖

交易诚信度
8
注册时间
2007-12-31
QQ
发表于 2015-2-2 17:03 | 显示全部楼层 |阅读模式

马上注册 家电论坛,众多有奖活动等你来参与!

您需要 登录 才可以下载或查看,没有帐号?注册

x
本帖最后由 音声音世 于 2015-2-2 21:27 编辑

日本版发烧天碟崔岩光- 茉莉花(WAV/百度)


本人所发的每一个帖子都是本人亲自用正版CD原抓的,音质绝对保证


游客,如果您要查看本帖隐藏内容请回复




解压密码:2015/2/2


img036.jpg
img037_副本.jpg
img037.jpg



中国著名花腔女高音歌唱家。毕业于中国音乐学院歌剧系,多次获得全国性大奖。崔岩光歌声清丽脱俗,曾经在日本演出莫札特歌剧《魔笛》,因此获得"中国的夜之后"美誉;参加北京亚运期间演出的意大利歌剧"茶花女"再被推崇为"建国以来最佳茶花女女主角"。
崔岩光有着"中国最佳女声"之誉。为什么说崔岩光是中国最佳女声?仔细听听她的歌声,会发现崔岩光有周旋般亮丽光彩的音色,有白光般宽广的音色,有白光般宽广的音域变化,还有邓丽君一样的娇媚温柔,把这几样特质结合在一起,因此,敢称之为“中国最佳女声”。
日本KING唱片公司曾为崔岩光制作了两张唱片,用的是非常昂贵的telefunken麦克风,录音大师高浪初郎以真空管录制,因此造就了不凡的传是经典。这两张唱片音质淳厚甜美,仿佛是一张黑胶唱片的靡靡之音,可说是中国女声乐家的发烧天碟。在此录音之中,她的[真正]声音唱歌,声调比做女高音时低了一、二个Key,但听起来更纯美可人,她以女高音的功力来演唱中国传统民谣和经典时代曲,当真比容自在,而歌声中的感情与感染力亦至为强烈,音效方面,此碟女声与配器的音色同样靓到难以批评,空气感与层次亦属顶级水准,大概已没有什么音响体系可以把它播得差。
由于唱片针对音响迷需求而特别设计,所以伴奏非常丰富,立体感鲜明,动态与定位绝佳。崔岩光的歌声饱满结实,音像栩栩如生,吐气仿佛就在耳边,日本录音大师高浪初郎以真空管器材赋予整体音色温暖而活生,完全回异于现有流行唱片的风格。本片所选的歌曲都是中国经典名曲,一首“相思河畔”与“魂萦旧梦”,就足以绕梁三日不绝,完全值得大力推荐的好唱片。

全国青年歌手电视大奖赛始自1984 年。第一届比赛没有区分唱法分别比赛,但区分了专业组和业余组,分别设立了一、二、三等奖以及特别奖。从第二届比赛开始,分了唱法,决赛还进行了现场直播。尽管第一届业余组的冠军刘捷也是美声唱法歌手,但是那一届比赛没有区分唱法,第一位业余组美声唱法冠军只能从第二届开始算。
崔岩光是1986年第二届青年歌手电视大奖赛业余组美声唱法的冠军。尽管在参加比赛的时候崔岩光的确不是职业演员,但之前是。从其个人履历可以看出:
1958年出生于大连,1973年加入北京空政文工团,1977年曾获全军声乐比赛优秀奖。
1979年,崔岩光曾与王秀芬、王莉华一起出版过一张唱片。当时这三位都是在京部队文工团的女高音。1981年崔岩光所在的北京空军政治部文工团撤编,崔岩光先是在北空的育翔幼儿园当了一年的阿姨,后来又到北空政治部当了一名干事。1982年盛夏,在一名音乐编辑的推荐下崔岩光投到了中央音乐学院周美玉门下,成了周教授的“课余学生”。北空文工团还在的时候,崔岩光报考中国音乐学院和上海音乐学院几近成功,均由于单位领导变卦而告吹。1984年,向周美玉学习近两年的崔岩光和丈夫杜锦一起参加了青年歌手大奖赛北京地区的预赛,崔岩光获得第一晋级全国比赛,并最终在决赛中胜出取得第一名。
我记住崔岩光正是在1984的决赛。我记得决赛先于崔岩光上场的是获得第二名的女高音王必主。王必主这个名字太怪了,主持人刘璐念出这名字时我以为是“地主”,心说这名字够“各色”。这位王必主同学已经是华南师范大学的教授,她参赛的时候唱的歌曲叫《我站在铁索桥上》(另一首忘了是什么歌曲),唱得应该说不错,评委给的分儿挺高,不知道是王筒子没想到能有这么高的分儿呢,还是以为第一名到手了,鞠躬得特别卖力,而且还破例去和指挥握手(和首席提琴握手没有我忘了),总之,表现得特别高调。我那时候有严重的“以貌取人”倾向,本来就讨厌这名字,加上这位“地主”长得不好看,心里非常不痛快,怎么想怎么觉得这人就不该得第一。王“地主”欢欢喜喜地下场之后,崔岩光就上场了,崔岩光高挑身量儿盘着头发,特安静地往哪儿一站,我就喜欢上了。结果崔岩光得了比王必主更高的分儿,可把我乐坏了。查资料得知,她当时唱的歌曲叫《森林静悄悄》和《云雀的礼品》,我记得都是带花腔的歌曲。担任评委的郭淑珍给崔岩光的评价是“音量饱满;流畅、干净;感觉好,音准;灵活,呼吸自如;与乐队配合不错;舞台气质朴实大方。”




Exact Audio Copy V1.0 beta 3 from 29. August 2011

EAC 抓取日志文件从22. 十一月 2014, 0:31

崔岩光 音声音世原抓CD / 茉莉花

使用驱动器  :PIONEER DVD-ROM DVD-232   Adapter: 2  ID: 0

读取模式      : 可靠Secure
使用精确流     : 是
清空音频缓存    : 是
使用 C2 指示器 : 否

读取偏移校正:               : 6
读取 Lead-In 和 Lead-Out : 否
用静音填充抓取中丢失偏移的采样       : 是
去除首尾静音块               : 否
在CRC 计算中使用了空样本       : 是
已用接口                  : Win NT 及 2000 本地 Win32 接口

所用输出模式: : 内部 WAV 函数
样本格式    : 44.100 Hz; 16 Bit; 立体声


已抓取 CD 的 TOC

     音轨 |    起始    |    长度    |  起始扇区  |  结束扇区  
    --------------------------------------------
      1 |  0:00.37 |  2:16.30 |     37 |  10266
      2 |  2:16.67 |  3:19.20 |  10267 |  25211
      3 |  5:36.12 |  2:08.13 |  25212 |  34824
      4 |  7:44.25 |  2:42.62 |  34825 |  47036
      5 | 10:27.12 |  3:15.18 |  47037 |  61679
      6 | 13:42.30 |  2:01.02 |  61680 |  70756
      7 | 15:43.32 |  2:28.70 |  70757 |  81926
      8 | 18:12.27 |  3:20.38 |  81927 |  96964
      9 | 21:32.65 |  2:04.05 |  96965 | 106269
     10 | 23:36.70 |  3:15.65 | 106270 | 120959
     11 | 26:52.60 |  2:20.55 | 120960 | 131514
     12 | 29:13.40 |  2:09.42 | 131515 | 141231
     13 | 31:23.07 |  2:39.03 | 141232 | 153159
     14 | 34:02.10 |  5:12.65 | 153160 | 176624
     15 | 39:15.00 |  2:12.47 | 176625 | 186571
     16 | 41:27.47 |  2:06.33 | 186572 | 196054
     17 | 43:34.05 |  2:22.27 | 196055 | 206731
     18 | 45:56.32 |  4:13.58 | 206732 | 225764
     19 | 50:10.15 |  2:06.47 | 225765 | 235261
     20 | 52:16.62 |  3:14.08 | 235262 | 249819


范围状态及错误

已选择范围

     文件名 G:\音乐\原抓CD8\崔岩光 音声音世原抓CD - 茉莉花\崔岩光 音声音世原抓CD - 茉莉花.wav

     峰值电平 99.2 %
     抓取速度 6.7 X
     范围质量 99.9 %
     复制 CRC 2E1FC393
     复制成功

没有错误发生




状态报告结尾

---- CUETools DB Plugin V2.1.3

[CTDB TOCID: 4etoNmsHe1OwE0XSuVwHc7sEvuc-] disk not present in database, Submit result: discs with pregaps not supported in this protocol version



此资源供爱好音乐的朋友交流,请您于下载二十四小时后删除。
如您喜欢本资源,请购买正版CD,切勿用于商业目的。



评分

参与人数 1威望 +1 金钱 +100 收起 理由
天下太平 + 1 + 100 很给力!

查看全部评分

微信号17502199718    发烧音响CD群40361905(不定期上传本人原版CD抓轨WAV)
回复

使用道具 举报

384

主题

2864

帖子

262

威望

版主

Rank: 10

优秀斑竹奖

交易诚信度
0
注册时间
2011-11-30
QQ
发表于 2015-2-2 17:24 | 显示全部楼层
这张没见过,下来听听。感谢音兄分享
分享音频一般仅一星期有效期,欲下从速,主题带有WAV/百度的才是有效,音乐CD唱片交流Q群:386519562
回复 支持 反对

使用道具 举报

16

主题

1013

帖子

2

威望

初级会员

Rank: 2Rank: 2

交易诚信度
0
注册时间
2005-8-25
发表于 2015-2-2 20:46 来自家电论坛网手机触屏版 | 显示全部楼层
谢谢楼主
回复 支持 反对

使用道具 举报

0

主题

7

帖子

0

威望

新手上路

Rank: 1

交易诚信度
0
注册时间
2013-11-1
发表于 2015-2-2 20:47 | 显示全部楼层
本帖最后由 950515 于 2015-2-2 22:03 编辑

催岩光的专辑张张值得收藏
回复 支持 反对

使用道具 举报

4

主题

70

帖子

0

威望

新手上路

Rank: 1

交易诚信度
0
注册时间
2012-12-28
发表于 2015-2-2 23:11 | 显示全部楼层
谢楼主,下来听听。
回复 支持 反对

使用道具 举报

4

主题

1169

帖子

3

威望

初级会员

Rank: 2Rank: 2

交易诚信度
0
注册时间
2008-6-12
QQ
发表于 2015-2-3 07:29 | 显示全部楼层
本帖最后由 horyx 于 2015-2-3 08:11 编辑

很喜欢的一位女高音,那声音真是字正腔圆
BOSS/卡尔丹顿/拉夫劳伦/佐丹奴  尽在淘-宝:T上品源
回复 支持 反对

使用道具 举报

25

主题

928

帖子

18

威望

中级会员

Rank: 3Rank: 3Rank: 3

交易诚信度
0
注册时间
2001-11-21
发表于 2015-2-3 08:27 | 显示全部楼层
谢谢发布资源
强调性价比!!!寻找适合老百性自己的产品!!!最可靠的是你的眼睛和耳朵!!!
回复 支持 反对

使用道具 举报

0

主题

67

帖子

0

威望

新手上路

Rank: 1

交易诚信度
0
注册时间
2015-2-2
发表于 2015-2-3 12:57 | 显示全部楼层
谢谢版主,收下慢慢欣赏。
回复 支持 反对

使用道具 举报

7

主题

1183

帖子

9

威望

中级会员

Rank: 3Rank: 3Rank: 3

交易诚信度
0
注册时间
2009-11-9
发表于 2015-2-3 15:01 | 显示全部楼层
谢谢
回复 支持 反对

使用道具 举报

49

主题

970

帖子

0

威望

中级会员

Rank: 3Rank: 3Rank: 3

交易诚信度
10
注册时间
2011-5-18
发表于 2015-2-3 15:56 | 显示全部楼层
tingting
回复 支持 反对

使用道具 举报

0

主题

60

帖子

0

威望

新手上路

Rank: 1

交易诚信度
0
注册时间
2013-3-26
发表于 2015-2-3 16:06 | 显示全部楼层
日本版发烧天碟崔岩光- 茉莉花
回复 支持 反对

使用道具 举报

0

主题

60

帖子

0

威望

新手上路

Rank: 1

交易诚信度
0
注册时间
2013-3-26
发表于 2015-2-3 16:06 | 显示全部楼层
日本版发烧天碟崔岩光
回复 支持 反对

使用道具 举报

0

主题

257

帖子

13

威望

中级会员

Rank: 3Rank: 3Rank: 3

交易诚信度
0
注册时间
2007-4-25
发表于 2015-2-3 16:14 | 显示全部楼层
这张确实没见过,不知道如何
回复 支持 反对

使用道具 举报

6

主题

404

帖子

0

威望

新手上路

Rank: 1

交易诚信度
0
注册时间
2010-11-2
发表于 2015-2-3 23:53 | 显示全部楼层
谢谢分享好碟
回复 支持 反对

使用道具 举报

18

主题

525

帖子

1

威望

初级会员

Rank: 2Rank: 2

交易诚信度
0
注册时间
2011-3-30
发表于 2015-2-4 00:24 | 显示全部楼层
绝对谢谢
回复 支持 反对

使用道具 举报

您需要登录后才可以回帖 登录 | 注册

本版积分规则

小黑屋|Archiver|手机版|网站热线:010-68636033 账号问题加QQ群:194098586|广告合作|家电联盟网 ( 京公网安备11010702000821 京ICP证041102号,京ICP备09075138号-3

GMT+8, 2018-1-18 15:27 , Processed in 0.199179 second(s), 43 queries , Gzip On, Memcache On.

Powered by Discuz! X3.2

© 2001-2013 Comsenz Inc.