请选择 进入手机版 | 继续访问电脑版
广告招商

[古典/交响乐/New Age] 世纪指挥大师莱纳和芝加哥交响乐团 天方夜谭 夜莺之歌

查看: 7980|回复: 111

28

主题

488

帖子

7

威望

中级会员

Rank: 3Rank: 3Rank: 3

交易诚信度
0
注册时间
2009-10-17
发表于 2014-2-15 18:15 | 显示全部楼层 |阅读模式

马上注册 家电论坛,众多有奖活动等你来参与!

您需要 登录 才可以下载或查看,没有帐号?注册

x
本帖最后由 950515 于 2014-2-16 08:47 编辑

演奏:芝加哥交响乐团
指挥:莱纳
唱片公司:RCA
CD编号:09026 68168-2
压片地:美国
《莱纳 Fritz Reiner:天方夜谭 夜莺之歌》本专辑一举囊括《天方夜谭》和《夜莺之歌》,总时长超过65分钟!这是莱纳名满天下的杰作,他的指挥大气磅礴而又细腻有加,芝加哥交响乐团光泽的铜管和甜美浓重的弦乐交相辉映,音场深远宽阔,音色的整体基调厚重,但小提琴独奏等细部分析力又极好,演奏魅力四射,光彩夺目,好到无可挑剔,被公认为在众多的版本中演奏最精彩,效果最过瘾,录音最发烧!

《唱片圣经》上榜评鉴:《天方夜谭》版本多如过江之鲫,但是任凭天上繁星千百,就数这个版本音效最佳,而且演奏热力四射,令人喘不过气。犹记当初0.5半速刻片系统一出来时不知迷倒多少音响迷……这张唱片是音响迷万年不变的标准测试唱片,您想知道什么是活生生的现场感吗?找它!您想知道什么叫正确的层次与深度感吗?找它!你想知道什么叫真实的乐器质感吗?找它!如果你在找到它之后,听起来觉得平淡无奇,那就赶紧找音响医生,因为您的音响系统生病了。

•RCA立体声系列演录俱佳录音典范!
•美国第一发烧天书《TAS》上榜天碟!
•发烧友众口绝赞永不落幕之发烧极品!
•世纪指挥大师莱纳和芝加哥交响乐团、RCA金牌录音师Lewis Layton及第一监制John Pfeifer完美打造!

Nikolai Rimsky-Korsakov 尼可莱•里姆斯基-科萨科夫(1844-1908)

Scheherazade, Op.35 天方夜谭,作品35
01 The Sea and Sinbad’s Ship 大海和辛巴达的船 09:04
02 The Story of the Kalender Prince 游方僧王子的故事 11:34
03 The Young Prince and the Young Princess 小王子和小公主 12:00
04 Festival in Bagdad; The Sea; The Ship Goes to Pieces on a Rock 巴格达城的节日—海—船触礁沉没 11:40

Igor Stravinsky 伊戈尔•斯特拉文斯基(1882-1971)

Song of the Nightingale 夜莺之歌
05 Presto 急板 02:37
06 Chinese March 中国进行曲 03:42
07 Song of the Nightingale 夜莺之歌 04:04

The Mechanical Nightingale 机器夜莺 00:58
08 The Mechanical Nightingale 机器夜莺 00:58
09 The Emperor’s displeasure at the departure of the real nightingale 夜莺之歌:真夜莺离开后,皇帝的不快 01:02
10 The Emperor’s sickroom 皇帝的病房 03:58
11 The real nightingale returns to thwart Death 真夜莺回来,驱走死神 02:51
12 Funeral march and Finale 葬礼进行曲和终曲 03:00

总时长:66:59

录制时间:1960年和1956年
乐团:芝加哥交响乐团
指挥:弗里茨•莱纳

01.jpg
02.jpg
03.jpg
05.jpg
04.jpg
原抓整轨WAVE:
游客,如果您要查看本帖隐藏内容请回复


大年初一不做晚饭在给大家抓轨
Exact Audio Copy V1.0 beta 3 from 29. August 2011


EAC 抓取日志文件从1. 二月 2014, 18:31


Chicago Symphony Orchestra & Fritz Reiner / Rimsky-Korsakov - Scheherazade


使用驱动器  :TEAC    CD-W540E   Adapter: 1  ID: 1


读取模式      : 可靠Secure
使用精确流     : 是
清空音频缓存    : 是
使用 C2 指示器 : 否


读取偏移校正:               : 0
读取 Lead-In 和 Lead-Out : 否
用静音填充抓取中丢失偏移的采样       : 是
去除首尾静音块               : 否
在CRC 计算中使用了空样本       : 是
已用接口                  : Win NT 及 2000 本地 Win32 接口


所用输出模式: : 内部 WAV 函数
样本格式    : 44.100 Hz; 16 Bit; 立体声




已抓取 CD 的 TOC


     音轨 |    起始    |    长度    |  起始扇区  |  结束扇区  
    --------------------------------------------
      1 |  0:00.00 |  9:07.62 |      0 |  41086
      2 |  9:07.62 | 11:37.00 |  41087 |  93361
      3 | 20:44.62 | 12:03.00 |  93362 | 147586
      4 | 32:47.62 | 11:48.00 | 147587 | 200686
      5 | 44:35.62 |  2:38.23 | 200687 | 212559
      6 | 47:14.10 |  3:42.52 | 212560 | 229261
      7 | 50:56.62 |  4:07.00 | 229262 | 247786
      8 | 55:03.62 |  0:57.63 | 247787 | 252124
      9 | 56:01.50 |  1:07.05 | 252125 | 257154
     10 | 57:08.55 |  3:57.62 | 257155 | 274991
     11 | 61:06.42 |  2:53.25 | 274992 | 287991
     12 | 63:59.67 |  3:00.20 | 287992 | 301511




范围状态及错误


已选择范围


     文件名 D:\抓取\Chicago Symphony Orchestra & Fritz Reiner - Rimsky-Korsakov - Scheherazade\Chicago Symphony Orchestra & Fritz Reiner - Rimsky-Korsakov -


Scheherazade.wav


     峰值电平 98.5 %
     抓取速度 7.4 X
     范围质量 99.9 %
     复制 CRC 533D8CA5
     复制成功


没有错误发生


状态报告结尾


---- CUETools DB Plugin V2.1.3


[CTDB TOCID: Q3q52xF5P.3RAsEgbk8Kan6d3zI-] found, Submit result: Q3q52xF5P.3RAsEgbk8Kan6d3zI- has been confirmed
[b8618071] (7/8) No match
[9030cf88] (1/8) Accurately ripped

评分

参与人数 1威望 +1 金钱 +100 收起 理由
天下太平 + 1 + 100 赞一个!

查看全部评分

回复

使用道具 举报

4

主题

524

帖子

0

威望

初级会员

Rank: 2Rank: 2

交易诚信度
0
注册时间
2014-1-4
发表于 2014-2-15 19:47 | 显示全部楼层
这张压片地应该不是美国。
回复 支持 反对

使用道具 举报

0

主题

11

帖子

0

威望

新手上路

Rank: 1

交易诚信度
0
注册时间
2014-2-17
发表于 2014-2-17 20:27 | 显示全部楼层
学习了,感谢!
回复 支持 反对

使用道具 举报

4

主题

1169

帖子

3

威望

初级会员

Rank: 2Rank: 2

交易诚信度
0
注册时间
2008-6-12
QQ
发表于 2014-2-17 21:21 | 显示全部楼层
很有意思的曲子和唱片
回复 支持 反对

使用道具 举报

0

主题

66

帖子

0

威望

新手上路

Rank: 1

交易诚信度
0
注册时间
2013-11-4
发表于 2014-2-18 08:14 | 显示全部楼层
确实是一张不错的专辑  谢谢分享
回复 支持 反对

使用道具 举报

74

主题

396

帖子

0

威望

新手上路

Rank: 1

交易诚信度
0
注册时间
2013-9-7
发表于 2014-2-19 00:29 | 显示全部楼层
谢谢分享
回复 支持 反对

使用道具 举报

0

主题

395

帖子

4

威望

中级会员

Rank: 3Rank: 3Rank: 3

交易诚信度
2
注册时间
2009-5-21
发表于 2014-2-19 18:56 | 显示全部楼层
依然是值得聆听的好碟,多谢LZ。
回复 支持 反对

使用道具 举报

40

主题

1441

帖子

9

威望

中级会员

Rank: 3Rank: 3Rank: 3

交易诚信度
0
注册时间
2010-7-18
QQ
发表于 2014-2-21 19:46 | 显示全部楼层
下来听听
回复 支持 反对

使用道具 举报

105

主题

1708

帖子

2

威望

中级会员

Rank: 3Rank: 3Rank: 3

交易诚信度
17
注册时间
2009-8-14
发表于 2014-12-26 14:47 | 显示全部楼层
谢谢分享好碟。。。。。。
回复 支持 反对

使用道具 举报

0

主题

34

帖子

0

威望

新手上路

Rank: 1

交易诚信度
0
注册时间
2014-3-28
发表于 2014-12-29 21:06 | 显示全部楼层
世纪指挥大师莱纳
回复 支持 反对

使用道具 举报

3

主题

1553

帖子

15

威望

中级会员

Rank: 3Rank: 3Rank: 3

交易诚信度
0
注册时间
2004-4-13
发表于 2014-12-31 15:10 | 显示全部楼层
谢谢分享
回复 支持 反对

使用道具 举报

13

主题

1561

帖子

3

威望

中级会员

Rank: 3Rank: 3Rank: 3

交易诚信度
10
注册时间
2006-10-16
发表于 2014-12-31 15:21 | 显示全部楼层
很经典的曲目,谢谢分享!
回复 支持 反对

使用道具 举报

0

主题

153

帖子

0

威望

新手上路

Rank: 1

交易诚信度
0
注册时间
2009-2-16
发表于 2015-1-10 09:45 | 显示全部楼层
谢谢了。顶
回复 支持 反对

使用道具 举报

0

主题

39

帖子

0

威望

新手上路

Rank: 1

交易诚信度
0
注册时间
2010-5-24
发表于 2015-1-10 15:10 | 显示全部楼层
谢谢分享
回复 支持 反对

使用道具 举报

0

主题

14

帖子

0

威望

新手上路

Rank: 1

交易诚信度
0
注册时间
2013-10-2
发表于 2015-1-15 23:24 | 显示全部楼层
很好赞一个哈哈哈哈
回复 支持 反对

使用道具 举报

您需要登录后才可以回帖 登录 | 注册

本版积分规则

小黑屋|Archiver|手机版|网站热线:010-68636033 账号问题加QQ:895456697(微信同号)|广告合作|家电联盟网 ( 京公网安备11010702000821 京ICP证041102号,京ICP备09075138号-3

GMT+8, 2018-1-23 02:18 , Processed in 0.183302 second(s), 41 queries , Gzip On, Memcache On.

Powered by Discuz! X3.2

© 2001-2013 Comsenz Inc.