请选择 进入手机版 | 继续访问电脑版
广告招商

[流行/摇滚/乡村] 原抓日本本土首版王菲-菲卖品WAV/百度

查看: 53260|回复: 698

430

主题

5681

帖子

366

威望

版主

Rank: 10

积极参与奖

交易诚信度
8
注册时间
2007-12-31
QQ
发表于 2013-12-25 11:09 | 显示全部楼层 |阅读模式

马上注册 家电论坛,众多有奖活动等你来参与!

您需要 登录 才可以下载或查看,没有帐号?注册

x
原抓日本本土首版王菲-菲卖品WAV/百度

本人所发的每一个帖子都是本人亲自用正版CD原抓的,音质绝对保证

游客,如果您要查看本帖隐藏内容请回复


在王菲转投EMI百代,推出新专辑《王菲》之时,老东家也乘势推出两张精选集,一张国语专辑《菲卖品》,一张粤语《菲主打》。尽管它们分散了新的份量,令专辑FAYE气恼不已,可对歌迷来说,这两盒专辑绝对物超所值。 《菲卖品》中收集了王菲的许多经典作品,像《天空》、《棋子》等等;《我愿意》、《矜持》则是她个人非常欣赏的作品。当王菲的声音在没有任何修饰的情况下传入耳边时,极为贴切地为歌曲营造出深夜遐想的境界,同时也把王菲声音的魅力表现得淋漓尽致。

DSC03322.JPG DSC03323.JPG DSC03324.JPG DSC03325.JPG DSC03326.JPG DSC03327.JPG DSC03328.JPG DSC03329.JPG


Exact Audio Copy V1.0 beta 3 from 29. August 2011

EAC 抓取日志文件从12. 十一月 2013, 14:11

王菲 音声音世原抓CD / 菲賣品

使用驱动器  :PHILIPS SPD2213P   Adapter: 0  ID: 1

读取模式      : 可靠Secure
使用精确流     : 是
清空音频缓存    : 是
使用 C2 指示器 : 否

读取偏移校正:               : 6
读取 Lead-In 和 Lead-Out : 否
用静音填充抓取中丢失偏移的采样       : 是
去除首尾静音块               : 否
在CRC 计算中使用了空样本       : 是
已用接口                  : Win NT 及 2000 本地 Win32 接口

所用输出模式: : 内部 WAV 函数
样本格式    : 44.100 Hz; 16 Bit; 立体声


已抓取 CD 的 TOC

     音轨 |    起始    |    长度    |  起始扇区  |  结束扇区  
    --------------------------------------------
      1 |  0:00.00 |  3:53.37 |      0 |  17511
      2 |  3:53.37 |  4:31.43 |  17512 |  37879
      3 |  8:25.05 |  5:24.72 |  37880 |  62251
      4 | 13:50.02 |  4:22.45 |  62252 |  81946
      5 | 18:12.47 |  4:28.15 |  81947 | 102061
      6 | 22:40.62 |  4:23.25 | 102062 | 121811
      7 | 27:04.12 |  3:28.43 | 121812 | 137454
      8 | 30:32.55 |  4:20.27 | 137455 | 156981
      9 | 34:53.07 |  3:01.15 | 156982 | 170571
     10 | 37:54.22 |  4:50.53 | 170572 | 192374
     11 | 42:45.00 |  4:49.25 | 192375 | 214074
     12 | 47:34.25 |  4:03.10 | 214075 | 232309
     13 | 51:37.35 |  4:24.20 | 232310 | 252129
     14 | 56:01.55 |  4:12.15 | 252130 | 271044
     15 | 60:13.70 |  4:41.40 | 271045 | 292159
     16 | 64:55.35 |  2:35.40 | 292160 | 303824
     17 | 67:31.00 |  3:15.25 | 303825 | 318474
     18 | 70:46.25 |  4:23.37 | 318475 | 338236


范围状态及错误

已选择范围

     文件名 E:\WAV音乐\王菲 音声音世原抓CD - 菲賣品\王菲 音声音世原抓CD - 菲賣品.wav

     峰值电平 100.0 %
     抓取速度 3.5 X
     范围质量 99.9 %
     复制 CRC 8A8D0454
     复制成功

没有错误发生


AccurateRip 摘要

音轨  1  精确地校准抓取  2)  [9761275F]  (AR v2)
音轨  2  精确地校准抓取  2)  [67FB6C2A]  (AR v2)
音轨  3  精确地校准抓取  2)  [F7DE691C]  (AR v2)
音轨  4  精确地校准抓取  2)  [0086A5E1]  (AR v2)
音轨  5  精确地校准抓取  2)  [12F72132]  (AR v2)
音轨  6  精确地校准抓取  2)  [7E76E4A8]  (AR v2)
音轨  7  精确地校准抓取  2)  [18DB640D]  (AR v2)
音轨  8  精确地校准抓取  2)  [BB7666FD]  (AR v2)
音轨  9  精确地校准抓取  2)  [CB08EA7F]  (AR v2)
音轨 10  精确地校准抓取  2)  [C645258B]  (AR v2)
音轨 11  精确地校准抓取  2)  [EDAF24D4]  (AR v2)
音轨 12  精确地校准抓取  2)  [AAAFFB78]  (AR v2)
音轨 13  精确地校准抓取  2)  [F11F7F68]  (AR v2)
音轨 14  精确地校准抓取  2)  [8AE894DF]  (AR v2)
音轨 15  精确地校准抓取  2)  [C2CE7F9E]  (AR v2)
音轨 16  精确地校准抓取  2)  [BCE29A10]  (AR v2)
音轨 17  精确地校准抓取  2)  [B7331950]  (AR v2)
音轨 18  精确地校准抓取  2)  [9D8086A7]  (AR v2)

所有音轨精确校准抓取

状态报告结尾

---- CUETools DB Plugin V2.1.3

[CTDB TOCID: CejMzpThl4zkaR_9lT2TzwpmTSA-] found, Submit result: CejMzpThl4zkaR_9lT2TzwpmTSA- has been confirmed
[eaced357] (7/7) Accurately ripped





此资源供爱好音乐的朋友交流,请您于下载二十四小时后删除。
如您喜欢本资源,请购买正版CD,切勿用于商业目的。
DSC03344.JPG

评分

参与人数 1威望 +1 金钱 +100 收起 理由
天下太平 + 1 + 100 赞一个!

查看全部评分

微信号17502199718   
发烧音响CD群40361905(不定期上传本人原版CD抓轨WAV)
回复

使用道具 举报

3

主题

380

帖子

1

威望

初级会员

Rank: 2Rank: 2

交易诚信度
0
注册时间
2004-12-7
发表于 2013-12-25 14:20 | 显示全部楼层
这个是真的需要收藏,谢谢啦!
回复 支持 反对

使用道具 举报

10

主题

1万

帖子

149

威望

超级会员

Rank: 6Rank: 6Rank: 6Rank: 6Rank: 6Rank: 6

交易诚信度
9
注册时间
2002-11-18
QQ
发表于 2013-12-25 14:44 | 显示全部楼层
很经典了
电话:13841884542
QQ: 282131550
回复 支持 反对

使用道具 举报

17

主题

254

帖子

0

威望

初级会员

Rank: 2Rank: 2

交易诚信度
4
注册时间
2011-12-1
发表于 2013-12-25 14:59 | 显示全部楼层
dingdingding
回复 支持 反对

使用道具 举报

409

主题

2938

帖子

262

威望

版主

Rank: 10

优秀斑竹奖

交易诚信度
0
注册时间
2011-11-30
QQ
发表于 2013-12-25 15:41 | 显示全部楼层
好版王菲专辑,原抓分享辛苦了。感谢音兄
分享音频一般仅一星期有效期,欲下从速,主题带有WAV/百度的才是有效,音乐CD唱片交流Q群:386519562
回复 支持 反对

使用道具 举报

0

主题

18

帖子

0

威望

新手上路

Rank: 1

交易诚信度
0
注册时间
2007-9-11
发表于 2013-12-25 15:52 | 显示全部楼层
thanks
回复 支持 反对

使用道具 举报

5

主题

1731

帖子

35

威望

高级会员

Rank: 4Rank: 4Rank: 4Rank: 4

交易诚信度
14
注册时间
2005-4-18
QQ
发表于 2013-12-25 18:01 | 显示全部楼层
真是有想法的精选
回复 支持 反对

使用道具 举报

12

主题

2109

帖子

6

威望

高级会员

Rank: 4Rank: 4Rank: 4Rank: 4

交易诚信度
43
注册时间
2004-1-28
发表于 2013-12-25 21:01 | 显示全部楼层
好东东,绑定。
回复 支持 反对

使用道具 举报

4

主题

175

帖子

0

威望

新手上路

Rank: 1

交易诚信度
0
注册时间
2007-1-1
发表于 2013-12-26 16:05 | 显示全部楼层
感恩{:soso_e160:}
回复 支持 反对

使用道具 举报

8

主题

1987

帖子

54

威望

特级会员

Rank: 5Rank: 5Rank: 5Rank: 5Rank: 5

交易诚信度
0
注册时间
2001-11-21
发表于 2013-12-26 23:23 | 显示全部楼层
很经典     
回复 支持 反对

使用道具 举报

0

主题

25

帖子

0

威望

新手上路

Rank: 1

交易诚信度
0
注册时间
2005-5-26
发表于 2013-12-27 11:12 | 显示全部楼层
好东西,收藏了。
回复 支持 反对

使用道具 举报

4

主题

135

帖子

0

威望

新手上路

Rank: 1

交易诚信度
0
注册时间
2011-9-8
发表于 2013-12-27 17:16 | 显示全部楼层
谢谢分享
回复 支持 反对

使用道具 举报

0

主题

5

帖子

0

威望

新手上路

Rank: 1

交易诚信度
0
注册时间
2013-8-7
发表于 2013-12-27 20:15 | 显示全部楼层
谢谢分享
回复 支持 反对

使用道具 举报

0

主题

18

帖子

0

威望

新手上路

Rank: 1

交易诚信度
0
注册时间
2012-12-13
发表于 2013-12-27 20:41 | 显示全部楼层
谢谢分享,[s:97]
回复 支持 反对

使用道具 举报

0

主题

145

帖子

0

威望

新手上路

Rank: 1

交易诚信度
0
注册时间
2012-9-6
发表于 2013-12-27 20:46 | 显示全部楼层
日版的音质很好谢谢
回复 支持 反对

使用道具 举报

您需要登录后才可以回帖 登录 | 注册

本版积分规则

关闭

今日推荐上一条 /1 下一条

小黑屋|Archiver|手机版|客服热线:010-68636033 QQ群:194098586|广告合作|家电联盟网 ( 京公网安备11010702000821 京ICP证041102号,京ICP备09075138号-3

GMT+8, 2018-10-23 19:59 , Processed in 0.214785 second(s), 47 queries , Gzip On, Memcache On.

Powered by Discuz! X3.2 Licensed

© 2001-2013 Comsenz Inc.