请选择 进入手机版 | 继续访问电脑版
广告招商

[流行/摇滚/乡村] 原抓首版天龙金碟刘德华-华纳超极品音色系列精选16首WAV/百度

查看: 34932|回复: 451

415

主题

5601

帖子

366

威望

版主

Rank: 10

积极参与奖

交易诚信度
8
注册时间
2007-12-31
QQ
发表于 2013-12-25 10:29 | 显示全部楼层 |阅读模式

马上注册 家电论坛,众多有奖活动等你来参与!

您需要 登录 才可以下载或查看,没有帐号?注册

x
原抓首版天龙金碟刘德华-华纳超极品音色系列精选16首WAV/百度

本人所发的每一个帖子都是本人亲自用正版CD原抓   音质绝对保证


游客,如果您要查看本帖隐藏内容请回复




DSC03358.JPG DSC03359.JPG DSC03360.JPG DSC03361.JPG DSC03362.JPG

QQ图片20131225102357.jpg

Exact Audio Copy V1.0 beta 3 from 29. August 2011

EAC 抓取日志文件从12. 十一月 2013, 19:38

劉德華 音声音世原抓CD / 華納超極品音色系列: 劉德華

使用驱动器  :PIONEER DVD-ROM DVD-231   Adapter: 0  ID: 1

读取模式      : 可靠Secure
使用精确流     : 是
清空音频缓存    : 是
使用 C2 指示器 : 否

读取偏移校正:               : 0
读取 Lead-In 和 Lead-Out : 否
用静音填充抓取中丢失偏移的采样       : 是
去除首尾静音块               : 否
在CRC 计算中使用了空样本       : 是
已用接口                  : Win NT 及 2000 本地 Win32 接口

所用输出模式: : 内部 WAV 函数
样本格式    : 44.100 Hz; 16 Bit; 立体声


已抓取 CD 的 TOC

     音轨 |    起始    |    长度    |  起始扇区  |  结束扇区  
    --------------------------------------------
      1 |  0:00.00 |  4:21.67 |      0 |  19641
      2 |  4:21.67 |  4:08.55 |  19642 |  38296
      3 |  8:30.47 |  5:01.00 |  38297 |  60871
      4 | 13:31.47 |  3:44.53 |  60872 |  77724
      5 | 17:16.25 |  4:42.07 |  77725 |  98881
      6 | 21:58.32 |  4:18.60 |  98882 | 118291
      7 | 26:17.17 |  4:29.00 | 118292 | 138466
      8 | 30:46.17 |  4:37.00 | 138467 | 159241
      9 | 35:23.17 |  4:54.13 | 159242 | 181304
     10 | 40:17.30 |  4:41.72 | 181305 | 202451
     11 | 44:59.27 |  4:29.63 | 202452 | 222689
     12 | 49:29.15 |  4:16.12 | 222690 | 241901
     13 | 53:45.27 |  4:36.00 | 241902 | 262601
     14 | 58:21.27 |  4:42.30 | 262602 | 283781
     15 | 63:03.57 |  3:37.53 | 283782 | 300109
     16 | 66:41.35 |  3:16.60 | 300110 | 314869


范围状态及错误

已选择范围

     文件名 E:\音乐\原抓WAV国语流行\劉德華 音声音世原抓CD - 華納超極品音色系列- 劉德華\劉德華 音声音世原抓CD - 華納超極品音色系列- 劉德華.wav

     峰值电平 97.7 %
     抓取速度 1.9 X
     范围质量 100.0 %
     复制 CRC 4DA14C40
     复制成功

没有错误发生

状态报告结尾

---- CUETools DB Plugin V2.1.3

[CTDB TOCID: sgHMuecHYI541MBs5bspH0iN6LM-] found, Submit result: sgHMuecHYI541MBs5bspH0iN6LM- has been confirmed
[3269b42f] (2/2) Accurately ripped






此资源供爱好音乐的朋友交流,请您于下载二十四小时后删除。 如您喜欢本资源,请购买正版CD,切勿用于商业目的。


评分

参与人数 1威望 +1 金钱 +100 收起 理由
天下太平 + 1 + 100 赞一个!

查看全部评分

微信号17502199718   
发烧音响CD群40361905(不定期上传本人原版CD抓轨WAV)
回复

使用道具 举报

0

主题

21

帖子

1

威望

初级会员

Rank: 2Rank: 2

交易诚信度
0
注册时间
2013-7-31
发表于 2013-12-25 10:31 | 显示全部楼层
音兄好碟啊!顶起[s:97]
回复 支持 反对

使用道具 举报

415

主题

5601

帖子

366

威望

版主

Rank: 10

积极参与奖

交易诚信度
8
注册时间
2007-12-31
QQ
 楼主| 发表于 2013-12-25 10:32 | 显示全部楼层
布加迪新手 发表于 2013-12-25 10:31
音兄好碟啊!顶起

谢兄弟捧场[s:21]
回复 支持 反对

使用道具 举报

42

主题

2034

帖子

32

威望

高级会员

Rank: 4Rank: 4Rank: 4Rank: 4

交易诚信度
13
注册时间
2007-9-9
QQ
发表于 2013-12-25 10:34 | 显示全部楼层
音兄各种好东西都不忘记弟兄们啊,收了。谢谢
回复 支持 反对

使用道具 举报

415

主题

5601

帖子

366

威望

版主

Rank: 10

积极参与奖

交易诚信度
8
注册时间
2007-12-31
QQ
 楼主| 发表于 2013-12-25 10:50 | 显示全部楼层
comc 发表于 2013-12-25 10:34
音兄各种好东西都不忘记弟兄们啊,收了。谢谢

还有很多 请继续关注[s:97][s:97]
回复 支持 反对

使用道具 举报

0

主题

66

帖子

0

威望

新手上路

Rank: 1

交易诚信度
0
注册时间
2013-11-4
发表于 2013-12-25 11:55 | 显示全部楼层
音质很不错  谢谢分享 顶起[s:97]
回复 支持 反对

使用道具 举报

8

主题

241

帖子

0

威望

新手上路

Rank: 1

交易诚信度
0
注册时间
2009-10-19
发表于 2013-12-25 13:12 | 显示全部楼层
好碟
回复 支持 反对

使用道具 举报

9

主题

1万

帖子

146

威望

超级会员

Rank: 6Rank: 6Rank: 6Rank: 6Rank: 6Rank: 6

交易诚信度
9
注册时间
2002-11-18
QQ
发表于 2013-12-25 13:16 | 显示全部楼层
就爱听真我的风采
电话:13841884542
QQ: 282131550
回复 支持 反对

使用道具 举报

409

主题

2910

帖子

262

威望

版主

Rank: 10

优秀斑竹奖

交易诚信度
0
注册时间
2011-11-30
QQ
发表于 2013-12-25 15:44 | 显示全部楼层
天龙1M1首版,赞一个
分享音频一般仅一星期有效期,欲下从速,主题带有WAV/百度的才是有效,音乐CD唱片交流Q群:386519562
回复 支持 反对

使用道具 举报

0

主题

234

帖子

3

威望

初级会员

Rank: 2Rank: 2

交易诚信度
0
注册时间
2006-4-21
发表于 2013-12-26 14:54 | 显示全部楼层
谢谢音兄,上传辛苦了。
回复 支持 反对

使用道具 举报

8

主题

1986

帖子

54

威望

特级会员

Rank: 5Rank: 5Rank: 5Rank: 5Rank: 5

交易诚信度
0
注册时间
2001-11-21
发表于 2013-12-26 23:26 | 显示全部楼层
没听过 试试
回复 支持 反对

使用道具 举报

0

主题

143

帖子

0

威望

新手上路

Rank: 1

交易诚信度
0
注册时间
2013-1-10
发表于 2013-12-27 11:12 | 显示全部楼层
谢谢楼主分享!
回复 支持 反对

使用道具 举报

0

主题

145

帖子

0

威望

新手上路

Rank: 1

交易诚信度
0
注册时间
2012-9-6
发表于 2013-12-27 20:51 | 显示全部楼层
极品金蝶品质很好谢谢
回复 支持 反对

使用道具 举报

0

主题

2140

帖子

123

威望

超级会员

Rank: 6Rank: 6Rank: 6Rank: 6Rank: 6Rank: 6

交易诚信度
0
注册时间
2003-6-17
QQ
发表于 2013-12-28 13:34 | 显示全部楼层
看起来不错啊,支持一下
:D
回复 支持 反对

使用道具 举报

0

主题

233

帖子

2

威望

初级会员

Rank: 2Rank: 2

交易诚信度
0
注册时间
2011-7-21
发表于 2013-12-28 17:21 | 显示全部楼层
谢谢分享
回复 支持 反对

使用道具 举报

您需要登录后才可以回帖 登录 | 注册

本版积分规则

关闭

今日推荐上一条 /1 下一条

小黑屋|Archiver|手机版|客服热线:010-68636033|广告合作|家电联盟网 ( 京公网安备11010702000821 京ICP证041102号,京ICP备09075138号-3

GMT+8, 2018-4-20 05:34 , Processed in 0.200425 second(s), 43 queries , Gzip On, Memcache On.

Powered by Discuz! X3.2

© 2001-2013 Comsenz Inc.