请选择 进入手机版 | 继续访问电脑版
广告招商

[流行/摇滚/乡村] 陈慧娴《永远是你的陈慧娴》日本本土首版 日本新和堂压片

查看: 84264|回复: 853

15

主题

53

帖子

14

威望

中级会员

Rank: 3Rank: 3Rank: 3

交易诚信度
0
注册时间
2012-4-10
发表于 2012-4-20 12:18 | 显示全部楼层 |阅读模式

马上注册 家电论坛,众多有奖活动等你来参与!

您需要 登录 才可以下载或查看,没有帐号?注册

x
本帖最后由 livjonpink 于 2013-5-1 15:55 编辑

                                                                                           201204201508.jpg

                                                                                          201204201509.jpg      

        香港粤语流行乐坛天后,在上世纪八十年代被称为帽子天后的一代玉女歌星陈慧娴,在歌唱事业如日中天之时,却毅然决然地远赴美国留学。这是陈慧娴告别歌坛后,宝丽金推出的她的第一张纪念精选。
  专辑精选1984年1月合辑《少女杂志》中一炮而红的“逝去的诺言”;1984年8月第一张个人专辑《故事的感觉》中的“玻璃窗的爱”;1985年《Priscilla》中的“花店”;1986年《反叛》中的“痴情意外”、“与泪抱拥”、“跳舞街”、“Love Me Once Again”;1987年《变变变》中的“去吧”;1988年5月《娴情》中的“傻女”;1988年10月《秋色》中的“地球大追踪”、“JOE LE TAXI”、“夜半惊魂”、“人生何处不相逢”、“秋色”、“几时再见”;1989年《永远是你的朋友》中的“忧郁,你好”、“夜机”、“Dancing Boy”、“冰点”、“千千阙歌”共二十首大受欢迎的传唱金曲。
  陈慧娴和她的歌曲是属于一代人的一个共同回忆。那个年代,香港歌坛空前绝后得繁荣着,太多实力非凡的歌手、太多余音绕梁的经典。这是时代对于那一代人的恩赐。流行可以复制,经典却是永恒。《永远是你的陈慧娴》就是永恒的经典。
      注意,此盘的版本非常的多包括了早期的韩国银圈,日本三菱,日本新和堂,日本天龙24K金盘以及后期的复刻,1:1母带直刻等等.但是在烧友以及娴迷中一致公认最好的还是这张,同期在日本本土发行的日首版由日本新和堂压盘的这个版本,也是最罕见最具收藏价值一个版本。( 日本三菱版的封面和此版本相同但是盘面不同也没有侧标)
                                 
01  地球大追踪
02  忧郁,你好!
03  夜机
04  Joe Le Taxi(新混音版)
05  痴情意外
06  Dancing Boy
07  与泪抱拥
08  花店
09  跳舞街
10  玻璃窗的爱
11  逝去的诺言
12  冰点
13  夜半惊魂
14  傻女
15  Love Me Once Again
16  去吧
17  人生何处不相逢
18  千千阙歌
19  秋色
20  几时再见

点评

* 又生
顶、顶  发表于 2013-4-4 19:50

评分

参与人数 1威望 +1 金钱 +150 收起 理由
vaiofelix + 1 + 150 很给力!

查看全部评分

回复

使用道具 举报

15

主题

53

帖子

14

威望

中级会员

Rank: 3Rank: 3Rank: 3

交易诚信度
0
注册时间
2012-4-10
 楼主| 发表于 2012-4-20 12:18 | 显示全部楼层
Exact Audio Copy V1.0 beta 3 from 29. August 2011

EAC 抓取日志文件从18. 四月 2012, 10:27

未知艺术家 / 未知标题

使用驱动器  :PIONEER DVD-RW  DVR-116   Adapter: 2  ID: 0

读取模式      : 可靠Secure
使用精确流     : 是
清空音频缓存    : 是
使用 C2 指示器 : 是

读取偏移校正:               : 96
读取 Lead-In 和 Lead-Out : 否
用静音填充抓取中丢失偏移的采样       : 是
去除首尾静音块               : 否
在CRC 计算中使用了空样本       : 是
已用接口                  : Win NT 及 2000 本地 Win32 接口

所用输出模式:   : 用户定义的编码器
已选比特率     : 768 kBit/s
质量        : 高
添加 ID3 标签 : 否
命令行压缩器    : D:\EAC\eac\Exact Audio Copy\FLAC\FLAC.EXE
附加命令行参数:  : -6 -V -T "ARTIST=%artist%" -T "TITLE=%title%" -T "ALBUM=%albumtitle%" -T "DATE=%year%" -T "TRACKNUMBER=%tracknr%" -T "GENRE=%genre%" -T "COMMENT=%comment%" -T "BAND=%albuminterpret%" -T "ALBUMARTIST=%albuminterpret%" -T "COMPOSER=%composer%" %haslyrics%--tag-from-file=LYRICS="%lyricsfile%"%haslyrics% -T "DISCNUMBER=%cdnumber%" -T "TOTALDISCS=%totalcds%" -T "TOTALTRACKS=%numtracks%" %hascover%--picture="%coverfile%"%hascover% %source% -o %dest%


已抓取 CD 的 TOC

     音轨 |    起始    |    长度    |  起始扇区  |  结束扇区  
    --------------------------------------------
      1 |  0:00.00 |  3:20.00 |      0 |  14999
      2 |  3:20.00 |  3:37.00 |  15000 |  31274
      3 |  6:57.00 |  4:29.00 |  31275 |  51449
      4 | 11:26.00 |  3:33.38 |  51450 |  67462
      5 | 14:59.38 |  3:45.00 |  67463 |  84337
      6 | 18:44.38 |  4:21.00 |  84338 | 103912
      7 | 23:05.38 |  4:33.00 | 103913 | 124387
      8 | 27:38.38 |  3:56.37 | 124388 | 142124
      9 | 31:35.00 |  3:45.38 | 142125 | 159037
     10 | 35:20.38 |  4:15.00 | 159038 | 178162
     11 | 39:35.38 |  4:01.00 | 178163 | 196237
     12 | 43:36.38 |  3:02.00 | 196238 | 209887
     13 | 46:38.38 |  3:55.00 | 209888 | 227512
     14 | 50:33.38 |  3:50.37 | 227513 | 244799
     15 | 54:24.00 |  3:48.00 | 244800 | 261899
     16 | 58:12.00 |  3:45.00 | 261900 | 278774
     17 | 61:57.00 |  3:55.38 | 278775 | 296437
     18 | 65:52.38 |  5:01.00 | 296438 | 319012
     19 | 70:53.38 |  4:29.00 | 319013 | 339187
     20 | 75:22.38 |  3:14.62 | 339188 | 353799


范围状态及错误

已选择范围

     文件名 F:\音乐\永远是你的陈慧娴\未知艺术家 - 未知标题.wav

     峰值电平 100.0 %
     抓取速度 12.1 X
     范围质量 100.0 %
     复制 CRC AB190837
     复制成功

没有错误发生


AccurateRip 摘要

音轨  1  精确地校准抓取  1)  [C576ACA8]  (AR v1)
音轨  2  精确地校准抓取  1)  [1941B526]  (AR v1)
音轨  3  精确地校准抓取  1)  [6D8577F7]  (AR v1)
音轨  4  精确地校准抓取  1)  [354E0E58]  (AR v1)
音轨  5  精确地校准抓取  1)  [B64B2BF1]  (AR v1)
音轨  6  精确地校准抓取  1)  [EDB3C120]  (AR v1)
音轨  7  精确地校准抓取  1)  [1CA827A0]  (AR v1)
音轨  8  精确地校准抓取  1)  [178174AC]  (AR v1)
音轨  9  精确地校准抓取  1)  [D1585367]  (AR v1)
音轨 10  精确地校准抓取  1)  [559A4AB1]  (AR v1)
音轨 11  精确地校准抓取  1)  [112DB9AE]  (AR v1)
音轨 12  精确地校准抓取  1)  [3844AF92]  (AR v1)
音轨 13  精确地校准抓取  1)  [C1DE04BF]  (AR v1)
音轨 14  精确地校准抓取  1)  [6118E841]  (AR v1)
音轨 15  精确地校准抓取  1)  [009EC8F8]  (AR v1)
音轨 16  精确地校准抓取  1)  [229854FA]  (AR v1)
音轨 17  精确地校准抓取  1)  [2CA9DA0E]  (AR v1)
音轨 18  精确地校准抓取  1)  [1D57BCAB]  (AR v1)
音轨 19  精确地校准抓取  1)  [8F017A23]  (AR v1)
音轨 20  精确地校准抓取  1)  [B2591A0F]  (AR v1)

所有音轨精确校准抓取

状态报告结尾
回复 支持 1 反对 0

使用道具 举报

21

主题

1679

帖子

10

威望

中级会员

Rank: 3Rank: 3Rank: 3

交易诚信度
9
注册时间
2010-10-11
发表于 2012-4-20 12:43 | 显示全部楼层
不错~~~
回复 支持 反对

使用道具 举报

3万

主题

4万

帖子

218

威望

版主

Rank: 10

优秀斑竹奖

交易诚信度
0
注册时间
2005-10-20
发表于 2012-4-20 12:56 | 显示全部楼层
这张版本的音质在香港碟友中的评价很高啊,谢谢楼主的无私奉献,推荐大家尝试!
回复 支持 反对

使用道具 举报

15

主题

53

帖子

14

威望

中级会员

Rank: 3Rank: 3Rank: 3

交易诚信度
0
注册时间
2012-4-10
 楼主| 发表于 2012-4-20 13:03 | 显示全部楼层
vaiofelix 发表于 2012-4-20 12:56
这张版本的音质在香港碟友中的评价很高啊,谢谢楼主的无私奉献,推荐大家尝试!

我还有个菲靡靡之音的贴,麻烦版主也帮设置隐藏可见,谢谢

点评

已处理好了,等你升级到高级会员就可以自己处理和贴媒体文件了,加油!  发表于 2012-4-20 13:08
回复 支持 反对

使用道具 举报

2

主题

78

帖子

2

威望

初级会员

Rank: 2Rank: 2

交易诚信度
0
注册时间
2009-6-4
发表于 2012-4-20 14:33 | 显示全部楼层
谢楼主发贴。
回复 支持 反对

使用道具 举报

16

主题

1953

帖子

32

威望

高级会员

Rank: 4Rank: 4Rank: 4Rank: 4

交易诚信度
0
注册时间
2004-3-14
发表于 2012-4-20 14:39 | 显示全部楼层
thanks for sharing
回复 支持 反对

使用道具 举报

1266

主题

2万

帖子

320

威望

核心会员

Rank: 7Rank: 7Rank: 7Rank: 7Rank: 7Rank: 7Rank: 7

热心网友奖

交易诚信度
0
注册时间
2011-7-18
发表于 2012-4-20 16:03 | 显示全部楼层
多谢分享
回复 支持 反对

使用道具 举报

0

主题

254

帖子

0

威望

初级会员

Rank: 2Rank: 2

交易诚信度
0
注册时间
2005-5-20
发表于 2012-4-20 16:16 | 显示全部楼层
感谢楼主!
回复 支持 反对

使用道具 举报

5

主题

1894

帖子

69

威望

特级会员

Rank: 5Rank: 5Rank: 5Rank: 5Rank: 5

交易诚信度
0
注册时间
2009-3-10
QQ
发表于 2012-4-21 11:08 | 显示全部楼层
感谢l楼主分享!
回复 支持 反对

使用道具 举报

40

主题

1595

帖子

37

威望

高级会员

Rank: 4Rank: 4Rank: 4Rank: 4

交易诚信度
0
注册时间
2005-10-27
发表于 2012-4-21 12:23 | 显示全部楼层
感谢楼主,收下啦。
回复 支持 反对

使用道具 举报

0

主题

179

帖子

1

威望

初级会员

Rank: 2Rank: 2

交易诚信度
0
注册时间
2009-3-26
发表于 2012-4-21 12:33 | 显示全部楼层
感谢楼主分享好音乐:victory:
回复 支持 反对

使用道具 举报

0

主题

213

帖子

1

威望

初级会员

Rank: 2Rank: 2

交易诚信度
0
注册时间
2010-7-2
发表于 2012-4-21 13:40 | 显示全部楼层
版主推荐,下来听听先,多谢分享[s:68]
回复 支持 反对

使用道具 举报

47

主题

1226

帖子

0

威望

禁止发言

交易诚信度
9
注册时间
2007-5-23
发表于 2012-4-21 14:02 | 显示全部楼层
提示: 作者被禁止或删除 内容自动屏蔽
回复 支持 反对

使用道具 举报

43

主题

1792

帖子

5

威望

中级会员

Rank: 3Rank: 3Rank: 3

交易诚信度
8
注册时间
2010-8-19
发表于 2012-4-21 14:42 | 显示全部楼层
好东西,下来看看
欢迎加入naim用家群:116708973。本群只允许纯正的发烧友加入,任何明的、暗的做音响生意的谢绝加入![/
回复 支持 反对

使用道具 举报

您需要登录后才可以回帖 登录 | 注册

本版积分规则

小黑屋|Archiver|手机版|客服热线:010-68636033|广告合作|家电联盟网 ( 京公网安备11010702000821 京ICP证041102号,京ICP备09075138号-3

GMT+8, 2018-7-20 22:48 , Processed in 0.143917 second(s), 40 queries , Gzip On, Memcache On.

Powered by Discuz! X3.2 Licensed

© 2001-2013 Comsenz Inc.