请选择 进入手机版 | 继续访问电脑版
广告招商

[流行/摇滚/乡村] Pink Floyd - Dark Side Of The Moon[月之暗面1988 MFSL无比传真24K日压金碟]WAV/百度

查看: 13945|回复: 222

16

主题

53

帖子

58

威望

特级会员

Rank: 5Rank: 5Rank: 5Rank: 5Rank: 5

交易诚信度
0
注册时间
2015-9-19
发表于 2015-12-21 03:53 | 显示全部楼层 |阅读模式

马上注册 家电论坛,众多有奖活动等你来参与!

您需要 登录 才可以下载或查看,没有帐号?注册

x
Pink Floyd - Dark Side Of The Moon[月之暗面1988 MFSL无比传真24K日压第一代金碟]


Pink Floyd乐队,是一支集艺术性及音响性为一体的乐队。其伟大专辑Dark side of the moon和The Wall,不但概念超前,录音也是非常的好,榜名盘。据说此MFSL无比传真再版的版本,达到可媲美首版的水平,又各有特色。


专辑歌手:Pink Floyd
专辑名称:Dark Side Of The Moon
唱片公司:EMI / HARVEST / MFSL无比传真
发行地区:美国
发行时间:1988年
内圈码:UDCD 517   SMF8006-1C   MANUFACTURED BY ULTECH
IFPI码:无
CD编号:
UDCD 517
Pink Floyd - Dark Side Of The Moon [1988 MFSL 24K GOLD DISC] (1)1.jpg Pink Floyd - Dark Side Of The Moon [1988 MFSL 24K GOLD DISC] (2)1.jpg Pink Floyd - Dark Side Of The Moon [1988 MFSL 24K GOLD DISC] (3)1.jpg Pink Floyd - Dark Side Of The Moon [1988 MFSL 24K GOLD DISC] (4)1.jpg



Exact Audio Copy V1.1 from 23. June 2015


EAC 抓取日志文件从3. 十二月 2015, 23:32


PINK FLOYD / The Dark Side Of The Moon (MFSL UDCD 517)


使用驱动器  :OEM     CD-ROM F522E   Adapter: 1  ID: 0


读取模式      : 可靠Secure
使用精确流     : 是
清空音频缓存    : 是
使用 C2 指示器 : 否


读取偏移校正:               : 12
读取 Lead-In 和 Lead-Out : 否
用静音填充抓取中丢失偏移的采样       : 是
去除首尾静音块               : 否
在CRC 计算中使用了空样本       : 是
已用接口                  : Win NT 及 2000 本地 Win32 接口


所用输出模式: : 内部 WAV 函数
样本格式    : 44.100 Hz; 16 Bit; 立体声




已抓取 CD 的 TOC


     音轨 |    起始    |    长度    |  起始扇区  |  结束扇区  
    --------------------------------------------
      1 |  0:00.00 |  1:13.35 |      0 |   5509
      2 |  1:13.35 |  2:45.40 |   5510 |  17924
      3 |  3:59.00 |  3:34.69 |  17925 |  34043
      4 |  7:33.69 |  7:04.31 |  34044 |  65874
      5 | 14:38.25 |  4:47.70 |  65875 |  87469
      6 | 19:26.20 |  6:23.16 |  87470 | 116210
      7 | 25:49.36 |  7:49.56 | 116211 | 151441
      8 | 33:39.17 |  3:25.34 | 151442 | 166850
      9 | 37:04.51 |  3:50.20 | 166851 | 184120
     10 | 40:54.71 |  2:04.24 | 184121 | 193444




范围状态及错误


已选择范围


     文件名 D:\Backup\桌面\Pink Floyd - Dark Side Of The Moon [1988 MFSL 24K GOLD DISC].wav


     峰值电平 60.0 %
     抓取速度 6.8 X
     范围质量 100.0 %
     复制 CRC F10499F1
     复制成功


没有错误发生



AccurateRip 摘要

音轨  1  精确地校准抓取  36)  [1153EC98]  (AR v2)
音轨  2  精确地校准抓取  35)  [F635DD56]  (AR v2)
音轨  3  精确地校准抓取  35)  [23275843]  (AR v2)
音轨  4  精确地校准抓取  35)  [27F627F8]  (AR v2)
音轨  5  精确地校准抓取  35)  [59252980]  (AR v2)
音轨  6  精确地校准抓取  34)  [0D59BF83]  (AR v2)
音轨  7  精确地校准抓取  35)  [6C77A498]  (AR v2)
音轨  8  精确地校准抓取  35)  [3CB7DE65]  (AR v2)
音轨  9  精确地校准抓取  35)  [7E5B5683]  (AR v2)
音轨 10  精确地校准抓取  34)  [4BA3AC89]  (AR v2)

所有音轨精确校准抓取


状态报告结尾


---- CUETools DB Plugin V2.1.6


[CTDB TOCID: TzwJ191pbugqRqLgR..yHJ1UoJk-] found
Submit result: unrecognized or virtual drive
Track | CTDB Status
  1   | (173/175) Accurately ripped, or (2/175) differs in 2 samples @00:53:15
  2   | (175/175) Accurately ripped
  3   | (175/175) Accurately ripped
  4   | (175/175) Accurately ripped
  5   | (175/175) Accurately ripped
  6   | (175/175) Accurately ripped
  7   | (175/175) Accurately ripped
  8   | (175/175) Accurately ripped
  9   | (175/175) Accurately ripped
10   | (174/175) Accurately ripped




==== 记录校验日志 3F826EFD811396FFF0E78AE089346CAFC0B2EA54AFDABD9956CA64330501B077 ====

游客,如果您要查看本帖隐藏内容请回复




评分

参与人数 1威望 +1 金钱 +100 收起 理由
天下太平 + 1 + 100 很给力!

查看全部评分

回复

使用道具 举报

409

主题

2937

帖子

262

威望

版主

Rank: 10

优秀斑竹奖

交易诚信度
0
注册时间
2011-11-30
QQ
发表于 2015-12-21 16:21 | 显示全部楼层
楼主的精彩碟又来了,加个EMI版的试听:
分享音频一般仅一星期有效期,欲下从速,主题带有WAV/百度的才是有效,音乐CD唱片交流Q群:386519562
回复 支持 反对

使用道具 举报

25

主题

949

帖子

18

威望

中级会员

Rank: 3Rank: 3Rank: 3

交易诚信度
0
注册时间
2001-11-21
发表于 2015-12-21 17:59 | 显示全部楼层
谢谢发表资源
强调性价比!!!寻找适合老百性自己的产品!!!最可靠的是你的眼睛和耳朵!!!
回复 支持 反对

使用道具 举报

2

主题

340

帖子

0

威望

初级会员

Rank: 2Rank: 2

交易诚信度
0
注册时间
2012-11-26
发表于 2015-12-22 09:59 | 显示全部楼层
谢谢分享!正版精品好碟!
回复 支持 反对

使用道具 举报

0

主题

197

帖子

0

威望

新手上路

Rank: 1

交易诚信度
0
注册时间
2008-2-18
发表于 2015-12-22 12:28 | 显示全部楼层
这个好像是Pink Floyd 最有名的一张碟了。
回复 支持 反对

使用道具 举报

15

主题

645

帖子

2

威望

初级会员

Rank: 2Rank: 2

交易诚信度
0
注册时间
2010-9-30
发表于 2015-12-22 21:56 | 显示全部楼层
当年没钱买,现在补听。谢谢
回复 支持 反对

使用道具 举报

3

主题

244

帖子

1

威望

初级会员

Rank: 2Rank: 2

交易诚信度
0
注册时间
2006-11-1
发表于 2015-12-22 22:57 | 显示全部楼层
谢谢分享,好人啦
回复 支持 反对

使用道具 举报

2

主题

2078

帖子

0

威望

初级会员

Rank: 2Rank: 2

交易诚信度
0
注册时间
2008-9-23
发表于 2015-12-23 04:40 | 显示全部楼层
谢谢分享!

做豆腐--做硬了是豆腐干 做稀了是豆腐脑 做薄了是豆腐皮 做没了是豆浆 放臭了是臭豆腐
回复 支持 反对

使用道具 举报

0

主题

129

帖子

0

威望

新手上路

Rank: 1

交易诚信度
0
注册时间
2010-10-24
发表于 2015-12-23 18:45 | 显示全部楼层
谢谢分享
回复 支持 反对

使用道具 举报

0

主题

83

帖子

0

威望

新手上路

Rank: 1

交易诚信度
0
注册时间
2015-8-29
发表于 2015-12-23 18:51 | 显示全部楼层
多谢分享了
回复 支持 反对

使用道具 举报

6

主题

407

帖子

0

威望

新手上路

Rank: 1

交易诚信度
0
注册时间
2010-11-2
发表于 2015-12-23 20:13 | 显示全部楼层
回复 支持 反对

使用道具 举报

8

主题

2768

帖子

57

威望

特级会员

Rank: 5Rank: 5Rank: 5Rank: 5Rank: 5

交易诚信度
0
注册时间
2007-11-7
发表于 2015-12-24 09:11 | 显示全部楼层
经典推荐啊!
回复 支持 反对

使用道具 举报

4

主题

298

帖子

0

威望

初级会员

Rank: 2Rank: 2

交易诚信度
2
注册时间
2006-11-5
QQ
发表于 2015-12-24 16:28 来自家电论坛网手机触屏版 | 显示全部楼层
多谢分享!!
回复 支持 反对

使用道具 举报

0

主题

23

帖子

0

威望

新手上路

Rank: 1

交易诚信度
0
注册时间
2015-12-7
发表于 2015-12-24 17:55 | 显示全部楼层
神级大碟啊
回复 支持 反对

使用道具 举报

1

主题

272

帖子

0

威望

新手上路

Rank: 1

交易诚信度
0
注册时间
2014-11-1
发表于 2015-12-24 18:35 | 显示全部楼层
不错!好碟
回复 支持 反对

使用道具 举报

您需要登录后才可以回帖 登录 | 注册

本版积分规则

小黑屋|Archiver|手机版|客服热线:010-68636033|广告合作|家电联盟网 ( 京公网安备11010702000821 京ICP证041102号,京ICP备09075138号-3

GMT+8, 2018-7-21 21:54 , Processed in 0.326187 second(s), 42 queries , Gzip On, Memcache On.

Powered by Discuz! X3.2 Licensed

© 2001-2013 Comsenz Inc.