请选择 进入手机版 | 继续访问电脑版
广告招商

[古典/交响乐/New Age] 国内版《世界名曲鉴赏》【Sony music 24BIT HDCD】 FLAC 115

查看: 46002|回复: 382

47

主题

505

帖子

1

威望

初级会员

Rank: 2Rank: 2

交易诚信度
1
注册时间
2011-4-12
发表于 2012-5-21 00:07 | 显示全部楼层 |阅读模式

马上注册 家电论坛,众多有奖活动等你来参与!

您需要 登录 才可以下载或查看,没有帐号?注册

x
本帖最后由 950515 于 2013-8-13 11:55 编辑



      1.命运

2.1821序曲

3.波尔卡

4.匈牙利舞曲

5.“亚莱城姑娘”间奏曲

6.悲歌

7.圆舞曲

8.锡士兵进行曲

9.蜻蜓

10.野玫瑰

11.小锡兵进行曲

12.野峰飞舞曲

13.银峰飞舞曲

14.袖珍序曲

15.玫瑰女之舞

16.花之圆舞曲

17.歌萨克民族舞曲

18.军刀舞曲

19.进行曲

                                                                                                        
游客,如果您要查看本帖隐藏内容请回复
提示:国内出的大杂烩,曲目可能是经典演绎,想初步了解的可以下。——livjonpink
属于无版权发行的国内悄悄版本,开拓听感知识的可以下——950515

评分

参与人数 1威望 +1 收起 理由
hifilover + 1

查看全部评分

回复

使用道具 举报

47

主题

505

帖子

1

威望

初级会员

Rank: 2Rank: 2

交易诚信度
1
注册时间
2011-4-12
 楼主| 发表于 2012-5-21 00:08 | 显示全部楼层
Exact Audio Copy V1.0 beta 3 from 29. August 2011

EAC 抓取日志文件从20. 五月 2012, 19:46

未知艺术家 / 未知标题

使用驱动器  :PIONEER DVD-RW  DVR-108   Adapter: 0  ID: 1

读取模式      : 可靠Secure
使用精确流     : 是
清空音频缓存    : 是
使用 C2 指示器 : 否

读取偏移校正:               : 6
读取 Lead-In 和 Lead-Out : 否
用静音填充抓取中丢失偏移的采样       : 是
去除首尾静音块               : 否
在CRC 计算中使用了空样本       : 是
已用接口                  : Win NT 及 2000 本地 Win32 接口

所用输出模式:   : 用户定义的编码器
已选比特率     : 768 kBit/s
质量        : 高
添加 ID3 标签 : 否
命令行压缩器    : E:\Exact Audio Copy\FLAC\FLAC.EXE
附加命令行参数:  : -6 -V -T "ARTIST=%artist%" -T "TITLE=%title%" -T "ALBUM=%albumtitle%" -T "DATE=%year%" -T "TRACKNUMBER=%tracknr%" -T "GENRE=%genre%" -T "COMMENT=%comment%" -T "BAND=%albuminterpret%" -T "ALBUMARTIST=%albuminterpret%" -T "COMPOSER=%composer%" %haslyrics%--tag-from-file=LYRICS="%lyricsfile%"%haslyrics% -T "DISCNUMBER=%cdnumber%" -T "TOTALDISCS=%totalcds%" -T "TOTALTRACKS=%numtracks%" %hascover%--picture="%coverfile%"%hascover% %source% -o %dest%


已抓取 CD 的 TOC

     音轨 |    起始    |    长度    |  起始扇区  |  结束扇区  
    --------------------------------------------
      1 |  0:00.00 |  6:34.05 |      0 |  29554
      2 |  6:34.05 |  3:59.40 |  29555 |  47519
      3 | 10:33.45 |  1:45.42 |  47520 |  55436
      4 | 12:19.12 |  3:05.65 |  55437 |  69376
      5 | 15:25.02 |  3:55.47 |  69377 |  87048
      6 | 19:20.49 |  2:03.67 |  87049 |  96340
      7 | 21:24.41 |  5:54.09 |  96341 | 122899
      8 | 27:18.50 |  3:05.49 | 122900 | 136823
      9 | 30:24.24 |  3:11.38 | 136824 | 151186
     10 | 33:35.62 |  2:43.48 | 151187 | 163459
     11 | 36:19.35 |  3:41.51 | 163460 | 180085
     12 | 40:01.11 |  1:32.00 | 180086 | 186985
     13 | 41:33.11 |  2:39.35 | 186986 | 198945
     14 | 44:12.46 |  3:26.37 | 198946 | 214432
     15 | 47:39.08 |  4:19.02 | 214433 | 233859
     16 | 51:58.10 |  7:14.65 | 233860 | 266474
     17 | 59:13.00 |  1:10.19 | 266475 | 271743
     18 | 60:23.19 |  2:30.37 | 271744 | 283030
     19 | 62:53.56 |  2:54.34 | 283031 | 296114


范围状态及错误

已选择范围

     文件名 E:\光盘抓取\世界名曲二A.wav

     峰值电平 87.4 %
     抓取速度 7.6 X
     范围质量 100.0 %
     复制 CRC 78E81670
     复制成功

没有错误发生

状态报告结尾

---- CUETools DB Plugin V2.1.3

[CTDB TOCID: yG_D1UK5.JHLFOq_DleaAGticUs-] found, Submit result: yG_D1UK5.JHLFOq_DleaAGticUs- has been confirmed
[7d371cfe] (1/1) Accurately ripped

回复 支持 反对

使用道具 举报

0

主题

395

帖子

4

威望

中级会员

Rank: 3Rank: 3Rank: 3

交易诚信度
2
注册时间
2009-5-21
发表于 2012-5-21 12:34 | 显示全部楼层
作为爱乐者的普及版还是不错的,都是名曲。
回复 支持 反对

使用道具 举报

46

主题

3122

帖子

133

威望

版主

Rank: 10

交易诚信度
0
注册时间
2007-2-5
发表于 2012-5-21 13:07 | 显示全部楼层
支持原抓。
但是没有试听,没有你本人的听后感,不知录音如何,也不知演奏效果如何。下次这些都要齐备才可以加威望。
回复 支持 反对

使用道具 举报

1

主题

68

帖子

0

威望

新手上路

Rank: 1

交易诚信度
0
注册时间
2008-7-13
发表于 2012-5-21 19:43 | 显示全部楼层
谢谢楼主分享
回复 支持 反对

使用道具 举报

0

主题

78

帖子

0

威望

新手上路

Rank: 1

交易诚信度
0
注册时间
2008-2-21
发表于 2012-5-21 21:35 | 显示全部楼层
都是耳熟能详的曲子
回复 支持 反对

使用道具 举报

0

主题

76

帖子

0

威望

新手上路

Rank: 1

交易诚信度
0
注册时间
2006-10-17
发表于 2012-5-21 22:48 | 显示全部楼层
谢谢
回复 支持 反对

使用道具 举报

10

主题

4046

帖子

16

威望

高级会员

Rank: 4Rank: 4Rank: 4Rank: 4

交易诚信度
2
注册时间
2006-8-22
发表于 2012-5-21 22:52 | 显示全部楼层
O(∩_∩)O谢谢分享
回复 支持 反对

使用道具 举报

2

主题

78

帖子

2

威望

初级会员

Rank: 2Rank: 2

交易诚信度
0
注册时间
2009-6-4
发表于 2012-5-21 23:20 | 显示全部楼层
下来欣赏,谢谢!
回复 支持 反对

使用道具 举报

40

主题

1767

帖子

5

威望

中级会员

Rank: 3Rank: 3Rank: 3

交易诚信度
8
注册时间
2010-8-19
发表于 2012-5-21 23:57 | 显示全部楼层
好音乐,下来听听
欢迎加入naim用家群:116708973。本群只允许纯正的发烧友加入,任何明的、暗的做音响生意的谢绝加入![/
回复 支持 反对

使用道具 举报

0

主题

67

帖子

0

威望

新手上路

Rank: 1

交易诚信度
0
注册时间
2011-9-23
发表于 2012-5-22 16:50 | 显示全部楼层
have    a    look   
回复 支持 反对

使用道具 举报

1

主题

1082

帖子

0

威望

初级会员

Rank: 2Rank: 2

交易诚信度
0
注册时间
2007-8-22
发表于 2012-5-25 16:11 | 显示全部楼层
非常感谢楼主!!!
回复 支持 反对

使用道具 举报

0

主题

132

帖子

0

威望

新手上路

Rank: 1

交易诚信度
0
注册时间
2006-8-25
发表于 2012-5-26 16:29 | 显示全部楼层
太好令人
回复 支持 反对

使用道具 举报

1

主题

112

帖子

4

威望

初级会员

Rank: 2Rank: 2

交易诚信度
0
注册时间
2012-4-3
发表于 2012-5-26 17:20 | 显示全部楼层
名曲+发烧,又能通俗大众,最爱的选择。
回复 支持 反对

使用道具 举报

0

主题

116

帖子

0

威望

新手上路

Rank: 1

交易诚信度
0
注册时间
2010-8-25
发表于 2012-5-27 09:05 | 显示全部楼层
谢谢楼主分享
回复 支持 反对

使用道具 举报

您需要登录后才可以回帖 登录 | 注册

本版积分规则

关闭

今日推荐上一条 /2 下一条

小黑屋|Archiver|手机版|客服热线:010-68636033|广告合作|家电联盟网 ( 京公网安备11010702000821 京ICP证041102号,京ICP备09075138号-3

GMT+8, 2018-4-25 13:04 , Processed in 0.212658 second(s), 41 queries , Gzip On, Memcache On.

Powered by Discuz! X3.2

© 2001-2013 Comsenz Inc.